<?xml version="1.0" standalone="no"?>
<!DOCTYPE svg PUBLIC "-//W3C//DTD SVG 1.1//EN" "http://www.w3.org/Graphics/SVG/1.1/DTD/svg11.dtd" >
<svg xmlns="http://www.w3.org/2000/svg">
<metadata>Generated by IcoMoon</metadata>
<defs>
<font id="compcon" horiz-adv-x="1024">
<font-face units-per-em="1024" ascent="960" descent="-64" />
<missing-glyph horiz-adv-x="1024" />
<glyph unicode="&#x20;" horiz-adv-x="512" d="" />
<glyph unicode="&#xe900;" glyph-name="npc_template" d="M512 857.606l-83.6-71.267-109.467-8.734-8.734-109.467-71.267-83.6 71.267-83.601 8.734-109.466 109.467-8.734 83.6-71.267 83.6 71.267 109.467 8.734 8.734 109.466 71.267 83.601-71.267 83.6-8.734 109.467-109.467 8.734zM512 755.339c93.852 0 170.6-77.014 170.6-170.867 0-93.852-76.748-170.6-170.6-170.6s-170.6 76.748-170.6 170.6c0 93.853 76.748 170.867 170.6 170.867zM512 687.006c-56.958 0-102.267-45.576-102.267-102.534s45.309-102.266 102.267-102.266c56.958 0 102.266 45.308 102.266 102.266s-45.308 102.534-102.266 102.534zM375.467 335.473v-297.066l136.533 102.4 136.533-102.4v297.066l-32.199-2.606-104.334-88.667-104.334 88.667z" />
<glyph unicode="&#xe901;" glyph-name="license" d="M204.8 665.981c-18.91 0-34.133-15.223-34.133-34.133v-367.684c0-18.91 15.223-34.133 34.133-34.133h614.399c18.91 0 34.133 15.223 34.133 34.133v367.684c0 18.91-15.223 34.133-34.133 34.133zM375.466 603.14c32.99 0 59.733-26.745 59.733-59.734s-26.743-59.733-59.733-59.733c-32.99 0-59.733 26.743-59.733 59.733s26.744 59.734 59.733 59.734zM580.266 567.473h204.8v-51.201h-204.8zM298.667 475.14h19.667c14.544-16.26 35.317-25.565 57.133-25.6 21.816 0.032 42.589 9.34 57.133 25.6h19.669v-18.733c7.675-4.141 15.883-8.927 25.6-15.401 17.067-68.264 34.133-98.841 34.133-127.999-23.359-9.34-48.049-15.901-73.266-20.134l-40.067 31.867c-23.944-1.574-72.249 3.47-105.934 12.127l-9.867-37.733c-14.974 3.78-29.746 8.192-43.933 13.867 0 29.81 17.067 59.734 34.133 127.999 9.743 6.489 17.95 11.249 25.6 15.401zM580.266 473.605h204.8v-51.201h-204.8zM580.266 379.738h136.533v-51.199h-136.533z" />
<glyph unicode="&#xe902;" glyph-name="npc_feature" d="M170.667 686.939v-307.2l68.267-68.267v-102.4h546.134v102.4l68.267 68.267v307.2zM477.867 618.672h68.267v-102.405h102.4v-68.267h-102.4v-102.4h-68.267v102.4h-102.4v68.267h102.4z" />
<glyph unicode="&#xe903;" glyph-name="npc_class" d="M511.933 755.267c-75.001 0-136.6-61.599-136.6-136.6 0-31.222 11.134-59.773 29-82.867l-77.133-99.2c-16.658 7.289-34.896 11.467-54.133 11.467-75.001 0-136.6-61.532-136.6-136.533s61.599-136.6 136.6-136.6c75.001 0 136.533 61.599 136.533 136.6 0 31.167-10.991 59.66-28.8 82.733l77.133 99.133c16.599-7.228 34.848-11.267 54-11.267 19.237 0 37.476 4.112 54.133 11.4l77.267-99.333c-17.796-23.068-28.867-51.513-28.867-82.667 0-75.001 61.599-136.6 136.6-136.6s136.267 61.599 136.267 136.6c0 75.001-61.266 136.533-136.267 136.533-19.258 0-37.595-4.163-54.267-11.467l-77.2 99.267c17.831 23.081 28.867 51.611 28.867 82.8 0 75.001-61.532 136.6-136.533 136.6zM511.933 686.933c38.107 0 68.267-30.16 68.267-68.267s-30.16-68.267-68.267-68.267c-38.107 0-68.333 30.16-68.333 68.267s30.226 68.267 68.333 68.267zM273.067 379.8c38.107 0 68.267-30.159 68.267-68.267 0-38.106-30.16-68.267-68.267-68.267s-68.333 30.16-68.333 68.267c0 38.108 30.226 68.267 68.333 68.267zM751.067 379.8c38.107 0 68.267-30.159 68.267-68.267 0-38.106-30.16-68.267-68.267-68.267s-68.333 30.16-68.333 68.267c0 38.108 30.226 68.267 68.333 68.267z" />
<glyph unicode="&#xe904;" glyph-name="squad" d="M512 723c-30.516-0.017-55.25-24.75-55.267-55.265v-0.002c0.017-30.516 24.75-55.25 55.265-55.267h0.002c30.516 0.017 55.25 24.75 55.267 55.265v0.002c-0.017 30.516-24.75 55.25-55.265 55.267h-0.002zM349.467 643.733c-33.915-0.023-61.4-27.522-61.4-61.44 0-0.009 0-0.019 0-0.028v0.001c0.023-33.901 27.499-61.377 61.398-61.4h0.002c0.008 0 0.017 0 0.027 0 33.918 0 61.417 27.485 61.44 61.398v0.002c0 0.008 0 0.017 0 0.027 0 33.932-27.508 61.44-61.44 61.44-0.009 0-0.019 0-0.028 0h0.001zM674.533 643.733c-0.008 0-0.017 0-0.027 0-33.932 0-61.44-27.508-61.44-61.44 0-0.009 0-0.019 0-0.028v0.001c0.023-33.915 27.522-61.4 61.44-61.4 0.009 0 0.019 0 0.028 0h-0.001c33.901 0.023 61.377 27.499 61.4 61.398v0.002c0 0.008 0 0.017 0 0.027 0 33.918-27.485 61.417-61.398 61.44h-0.002zM512 550.533c-37.703 0-68.267-30.564-68.267-68.267v0c0-37.703 30.564-68.267 68.267-68.267v0c37.703 0 68.267 30.564 68.267 68.267v0c0 37.703-30.564 68.267-68.267 68.267v0zM176.733 547.533c-37.703 0-68.267-30.564-68.267-68.267v0c0-37.703 30.564-68.267 68.267-68.267v0c37.703 0 68.267 30.564 68.267 68.267v0c0 37.703-30.564 68.267-68.267 68.267v0zM847.267 547.533c-37.703 0-68.267-30.564-68.267-68.267v0c0-37.703 30.564-68.267 68.267-68.267v0c37.703 0 68.267 30.564 68.267 68.267v0c0 37.703-30.564 68.267-68.267 68.267v0zM328 443c-41.832-0.024-75.733-33.941-75.733-75.776 0-0.008 0-0.017 0-0.025v0.001c0-0.007 0-0.016 0-0.024 0-41.835 33.902-75.752 75.731-75.776h0.002c0.007 0 0.016 0 0.024 0 41.85 0 75.776 33.926 75.776 75.776 0 0.008 0 0.017 0 0.025v-0.001c0 0.007 0 0.016 0 0.024 0 41.85-33.926 75.776-75.776 75.776-0.008 0-0.017 0-0.025 0h0.001zM696 443c-0.007 0-0.016 0-0.024 0-41.85 0-75.776-33.926-75.776-75.776 0-0.008 0-0.017 0-0.025v0.001c0-0.007 0-0.016 0-0.024 0-41.85 33.926-75.776 75.776-75.776 0.008 0 0.017 0 0.025 0h-0.001c41.832 0.024 75.733 33.941 75.733 75.776 0 0.008 0 0.017 0 0.025v-0.001c0 0.007 0 0.016 0 0.024 0 41.835-33.902 75.752-75.731 75.776h-0.002zM512 339.2c-0.007 0-0.014 0-0.022 0-46.438 0-84.086-37.632-84.111-84.064v-0.003c0-0.006 0-0.014 0-0.022 0-46.453 37.658-84.111 84.111-84.111 0.008 0 0.015 0 0.023 0h-0.001c0.007 0 0.014 0 0.022 0 46.453 0 84.111 37.658 84.111 84.111 0 0.008 0 0.015 0 0.023v-0.001c-0.025 46.434-37.674 84.067-84.111 84.067-0.008 0-0.015 0-0.023 0h0.001z" />
<glyph unicode="&#xe905;" glyph-name="condition_downandout" d="M511.933 789.267c-188.109 0-341.2-153.091-341.2-341.2s153.091-341.4 341.2-341.4 341.4 153.292 341.4 341.4c0 188.109-153.291 341.2-341.4 341.2zM511.933 720.933c63.251 0 121.179-21.5 167.4-57.333l-382.933-382.933c-35.833 46.221-57.333 104.149-57.333 167.4 0 151.215 121.652 272.867 272.867 272.867zM727.6 615.4c35.885-46.17 57.467-104.082 57.467-167.333 0-151.214-121.919-273.133-273.133-273.133-63.251 0-121.163 21.582-167.333 57.467l383 383z" />
<glyph unicode="&#xe906;" glyph-name="condition_immobilized" d="M381.4 763.339l-184.733-184.734v-261.2l184.733-184.733h261.2l184.733 184.733v261.2l-184.733 184.734zM375.467 584.533h273.066v-273.066h-273.067z" />
<glyph unicode="&#xe907;" glyph-name="condition_slow" d="M512 806.4c-17.067 0-34.133-17.067-68.267-51.2l-238.933-238.933c-68.267-68.267-68.267-68.266 0-136.533l238.933-238.933c68.267-68.267 68.266-68.267 136.533 0l238.933 238.933c68.267 68.267 68.267 68.266 0 136.533l-238.933 238.933c-34.134 34.133-51.2 51.2-68.267 51.2zM431.8 550.4c27.871 0 48.276-15.16 64.467-30.733s29.808-33.867 42.867-50.933c13.059-17.066 25.577-33.043 36-43.067s16.901-11.867 17.133-11.867c14.278 0 28.461 8.953 45.667 27.467s33.578 43.91 54.667 65l48.333-48.333c-13.044-13.044-30.689-38.847-53.133-63s-53.613-49.4-95.533-49.4c-27.871 0-48.276 15.426-64.467 31s-29.808 33.6-42.867 50.667c-13.059 17.068-25.577 33.043-36 43.067s-16.901 11.867-17.133 11.867c-14.278 0-28.395-8.953-45.6-27.467-17.205-18.515-33.844-43.978-54.933-65.067l-48.133 48.4c13.044 13.044 30.489 38.848 52.933 63s53.813 49.4 95.733 49.4z" />
<glyph unicode="&#xe908;" glyph-name="manufacturer" d="M546.133 817.467c-33.198-0.001-60.862-23.699-66.996-55.102l-0.070-0.431-138.067-115.067c-10.295 3.403-21.323 5.981-33.733 6l-0.067-0.067c-56.15 0-102.4-46.251-102.4-102.4 0.009-23.483 8.131-46.301 22.933-64.533l-1.333 1.733 116.267-162.867c-0.436-4.408-1.333-8.684-1.333-13.2 0 0 0-0.067 0-0.067v-91l-68.267-45.533v-68.267h409.6v68.267l-68.267 45.533v90.4c0.001 0.228 0.067 0.439 0.067 0.667 0 64.156-45.162 118.097-105.133 132.467l-103.733 145.667 113.2 97c8.048-3.616 17.443-5.726 27.33-5.733h0.003c7.953 0.008 15.584 1.375 22.678 3.88l-0.478-0.147 73.133-73.067-27.067-27.067h-34.133v-34.133l102.4-102.4h68.267l-89.6 89.6 102.4 102.4 89.6-89.6v68.267l-102.4 102.4h-34.133v-34.133l-27.067-27.067-76.533 76.533c0.763 3.832 1.2 8.237 1.2 12.744 0 0.020 0 0.040 0 0.059v-0.003c0 37.703-30.564 68.267-68.267 68.267v0zM307.133 584.6h0.067c5.697-0.019 12.437-1.714 17.4-3.933 4.718-2.116 7.482-5.546 5.267-2.333l99.467-139.667c-21.837-8.43-40.704-22.397-55.533-40.067l-93.067 130.4c-4.94 6.089-7.663 13.631-7.667 21.467 0 19.234 14.843 34.097 34.067 34.133zM477.933 379.8c38.107 0 68.267-30.159 68.267-68.267 0-38.106-30.16-68.267-68.267-68.267s-68.333 30.16-68.333 68.267c0 38.108 30.226 68.267 68.333 68.267z" />
<glyph unicode="&#xe909;" glyph-name="condition_stunned" d="M511.933 789.4c-188.109 0-341.2-153.291-341.2-341.4s153.091-341.4 341.2-341.4c188.107 0 341.4 153.291 341.4 341.4s-153.293 341.4-341.4 341.4zM511.933 721.133c151.214 0 273.133-121.918 273.133-273.133s-121.92-273.133-273.133-273.133c-151.216 0-272.867 121.918-272.867 273.133s121.651 273.133 272.867 273.133zM423.867 632.667c-42.43-20.621-75.9-54.135-95.933-95.383l-0.534-1.217 88.067-88.067-88.133-88.133c20.605-42.421 54.095-75.889 95.317-95.933l1.216-0.534 88.133 88.067 88.133-88.133c42.43 20.621 75.9 54.135 95.933 95.383l0.534 1.217-88.067 88.067 88.133 88.067c-20.61 42.457-54.126 75.951-95.383 96l-1.217 0.534-88.067-88.067-88.133 88.133z" />
<glyph unicode="&#xe90a;" glyph-name="condition_shredded" d="M443.734 787.875c-62.246-29.576-156.523-66.799-238.933-66.799 0 0 10.141-184.529 34.133-273.067 22.663-83.635 49.928-169.978 102.4-238.933 44.117-57.976 102.4-102.4 170.667-136.534 68.267 34.134 126.549 78.558 170.667 136.534 52.472 68.955 79.737 155.298 102.4 238.933 23.992 88.538 34.133 273.067 34.133 273.067-82.409 0-176.688 37.223-238.933 66.799v-100.933l-68.267-102.4 170.667-102.4-204.8-136.533 136.533-102.4-102.4-102.4 34.133 102.4-170.667 102.4 170.667 136.533-204.8 102.4 102.4 102.4z" />
<glyph unicode="&#xe90b;" glyph-name="condition_lockon" d="M477.867 823.467v-273.067l34.133-34.133 34.133 34.133v273.067h-68.267zM273.067 686.933v-136.533h68.267v68.267h68.267v68.267h-136.533zM614.4 686.933v-68.267h68.267v-68.267h68.267v136.533h-136.533zM409.6 482.133l-273.067-0.2v-68.067h273.067l34.133 34.133-34.133 34.133zM614.4 482.133l-34.133-34.133 34.133-34.133h273.067v68.067l-273.067 0.2zM512 379.733l-34.133-34.133v-273.067h68.267v273.067l-34.133 34.133zM273.067 345.6v-136.533h136.533v68.267h-68.267v68.267h-68.267zM682.667 345.6v-68.267h-68.267v-68.267h136.533v136.533h-68.267z" />
<glyph unicode="&#xe90c;" glyph-name="condition_jammed" d="M512 823.467v-307.2l-102.4-68.267 102.4-375.467v307.2l102.4 68.267-102.4 375.467zM166.2 690.2l70.067-192.467-54.667-74.4 159.733-214.267-70.067 192.467 54.667 74.333-159.733 214.333zM857.8 690.2l-70.067-192.467-89.667-21.867-15.4-266.8 70.067 192.467 89.667 21.8 15.4 266.867z" />
<glyph unicode="&#xe90d;" glyph-name="status_shutdown" d="M887.467 618.667l-375.467 102.4-375.466-102.4v-341.334l375.466-102.4 375.467 102.4zM477.8 652.672h68.267v-204.6h-68.267zM443.734 604.14v-80c-20.841-18.661-34.134-45.553-34.134-76.067 0-56.958 45.375-102.533 102.334-102.533 56.958 0 102.533 45.575 102.533 102.533 0 30.481-13.333 57.341-34.2 76v80c60.091-26.485 102.467-86.448 102.467-156 0-93.852-76.948-170.8-170.8-170.8s-170.6 76.948-170.6 170.8c0 69.605 42.308 129.613 102.4 156.067z" />
<glyph unicode="&#xe90e;" glyph-name="status_prone" d="M365.533 779.4l-48.4-48.333 194.8-194.8 194.733 194.8-48.133 48.333-146.333-146.6-146.667 146.6zM365.533 540.333l-48.4-48.133 194.8-194.8 194.733 194.8-48.133 48.133-146.6-146.4-146.4 146.4zM204.8 209.067l-68.267-102.4h750.933l-68.267 102.4h-614.4z" />
<glyph unicode="&#xe90f;" glyph-name="status_invisible" d="M512.001 823.475l-102.4-102.4h204.8zM341.334 652.809l-68.267-68.267h102.4l68.267 68.267zM580.267 652.809l68.267-68.267h102.4l-68.267 68.267zM204.801 516.275l-68.267-68.266 68.267-68.267h102.4l-68.267 68.267 68.267 68.266zM716.8 516.275l68.267-68.266-68.267-68.267h102.4l68.267 68.267-68.267 68.266zM273.067 311.475l68.267-68.266h102.4l-68.267 68.266zM648.534 311.475l-68.267-68.266h102.4l68.267 68.266zM409.601 174.942l102.4-102.4 102.4 102.4h-102.4z" />
<glyph unicode="&#xe910;" glyph-name="status_hidden" d="M204.8 823.47v-750.933h204.8v750.933zM546.133 755.204l-68.267-68.267v-102.4l68.267 68.267 204.8-204.795-204.8-204.805-68.267 68.266v-102.4l68.267-68.266 307.2 307.205z" />
<glyph unicode="&#xe911;" glyph-name="status_exposed" d="M508.4 804.676l-61-30.734 73.467-146.866-20.867-10.398-242.867 81-21.333-64.934 155.733-51.866-7.4-22.134-228.867-114.399 30.8-61 146.8 73.466 10.401-20.8-80.933-242.733 64.867-21.4 51.867 155.8 22-7.328 114.533-228.999 61 30.734-73.467 146.866 20.8 10.398 242.933-81 21.333 64.934-155.733 51.868 7.4 22.133 228.867 114.4-30.8 61-146.8-73.467-10.401 20.8 80.933 242.733-64.867 21.4-51.867-155.799-22.067 7.328zM512.001 516.275c37.702 0 68.266-30.564 68.267-68.266v0c0 0 0 0 0 0 0-37.703-30.564-68.267-68.267-68.267v0c-37.703 0-68.267 30.564-68.267 68.267 0 0 0 0 0 0.001v0c0 37.702 30.564 68.266 68.267 68.266v0z" />
<glyph unicode="&#xe912;" glyph-name="status_engaged" d="M829.2 813.533l-180.6-180.6v88.133h-68.333v-204.867h204.867v68.267h-88.467l180.667 180.667-48.133 48.4zM331.333 676.933l-48.4-48.333 409.733-409.467 48.4 48.133-409.733 409.667zM238.867 379.6v-68.267h88.267l-180.467-180.667 48.133-48.133 180.6 180.6v-88.133h68.333v204.6h-204.867z" />
<glyph unicode="&#xe913;" glyph-name="status_danger_zone" d="M375.467 857.609c-56.73 0-102.4-45.67-102.4-102.4v-409.867c-42.9-32.175-68.183-82.642-68.267-136.267 0-94.256 76.41-170.666 170.667-170.666s170.667 76.41 170.667 170.666c-0.068 53.625-25.367 104.093-68.267 136.267v409.867c0 56.73-45.67 102.4-102.4 102.4zM682.667 755.209l-136.533-102.4v-238.934l136.533-68.266-68.267 102.4h204.8l-170.667 68.266 238.933 170.667-273.067-68.267zM341.334 618.67h68.267v-313.194c40.864-14.448 68.206-53.058 68.267-96.401 0-56.553-45.846-102.4-102.4-102.4s-102.4 45.847-102.4 102.4c0.068 43.343 27.403 81.954 68.267 96.401z" />
<glyph unicode="&#xe914;" glyph-name="activation_full" d="M224.667 721.074l-9.799-10.14-78.4-78.067v-369.667l88.2-88.2h574.467l88.2 88.2v369.667l-88.2 88.2zM341.334 602.607l375.467-154.6-375.467-154.666 68.267 154.666z" />
<glyph unicode="&#xe915;" glyph-name="activation_quick" d="M224.734 721.074l-10.066-10.14-78.133-78.067v-369.667l88.2-88.2h574.534l88.133 88.2v369.667l-88.133 88.2zM253.001 652.741h518l48.133-48.067v-313.2l-48.133-48.133h-518l-48.133 48.133v313.2zM341.334 602.607l68.267-154.6-68.267-154.666 375.467 154.666z" />
<glyph unicode="&#xe916;" glyph-name="tech_full" d="M224.868 721.074l-88.2-88.207v-369.667l88.2-88.2h574.467l88.2 88.2v369.667l-88.2 88.2zM311.468 608.74l160.733-160.733-160.733-160.534-48.4 48.134 112.4 112.399-112.4 112.401zM582.401 596.6l64-23.934-102.333-273.133-64 23.934zM718.934 596.6l64-23.934-102.533-273.133-63.733 23.934z" />
<glyph unicode="&#xe917;" glyph-name="tech_quick" d="M224.667 721.074l-9.799-10.14-78.4-78.067v-369.667l88.2-88.2h574.467l88.2 88.2v369.667l-88.2 88.2zM252.867 652.741h518.067l48.4-48.067v-313.2l-48.4-48.133h-517.8l-48.4 48.133v313.2zM311.467 608.74l-48.4-48.333 112.4-112.401-112.4-112.399 48.4-48.134 160.733 160.534zM582.467 596.6l-102.533-273.133 64-23.934 102.533 273.133zM719.068 596.6l-102.6-273.133 64-23.934 102.333 273.133z" />
<glyph unicode="&#xe918;" glyph-name="e_def" d="M512.001 789.341l-273.067-68.266c0-128.751 0.245-220.912 11.266-293.934l62.467 62.534c-3.434 7.845-5.443 16.984-5.467 26.591v0.009c0 37.702 30.564 68.266 68.267 68.266v0c37.702 0 68.266-30.564 68.267-68.266v0c0 0 0 0 0 0 0-37.703-30.564-68.267-68.267-68.267v0c-9.66 0.006-18.848 2.018-27.174 5.641l0.441-0.171-86-85.999c15.901-54.542 42.699-98.051 87.067-141.133v129.933l136.6 136.6v96.734c-25.205 10.394-42.63 34.757-42.667 63.195v0.005c0 0 0 0 0 0 0 37.703 30.564 68.267 68.267 68.267v0c37.703 0 68.267-30.564 68.267-68.267 0 0 0 0 0-0.001v0c-0.019-28.484-17.48-52.884-42.279-63.101l-0.454-0.166v-118.133l-136.6-136.267v-152.467c30.933-23.861 67.136-48.543 111.067-76 162.103 101.314 227.831 166.767 254.6 281.6h-107.4l-84.4-84.4c3.425-7.825 5.433-16.941 5.467-26.522v-0.013c0-37.702-30.564-68.266-68.267-68.266v0c-37.702 0-68.266 30.564-68.267 68.266v0c0 0 0 0 0 0 0 37.703 30.564 68.267 68.267 68.267v0c9.608-0.003 18.751-1.991 27.043-5.576l-0.442 0.17 84.333 84.334v28.534c-25.205 10.394-42.63 34.757-42.667 63.195v0.005c0 37.702 30.564 68.266 68.267 68.266v0c28.387-0.042 52.708-17.403 62.967-42.081l0.167-0.452h71c1.809 51.559 2.4 108.546 2.4 179.067zM711.734 490.607c-7.101-17.165-20.485-30.527-37.213-37.433l-0.454-0.166v-13.6h101.333c2.136 16.305 4.13 32.798 5.4 51.199z" />
<glyph unicode="&#xe919;" glyph-name="downtime" d="M512 789.333c-113.108 0-204.8-91.692-204.8-204.8v0c0-113.108 91.692-204.8 204.8-204.8v0c113.108 0 204.8 91.692 204.8 204.8v0c-0.088 9.698-0.837 19.141-2.202 28.383l0.135-1.116c-11.972-73.85-75.231-129.569-151.523-129.667h-0.010c-84.831 0-153.6 68.769-153.6 153.6v0c0.053 76.291 55.718 139.566 128.646 151.48l0.887 0.12c-8.098 1.205-17.499 1.929-27.055 2h-0.078zM238.933 345.6v-165.867c-23.39-11.51-46.281-24.276-68.267-38.933l34.133-34.133c136.534 102.4 477.867 102.4 614.4 0l34.133 34.133c-21.981 14.654-44.881 27.425-68.267 38.933v97.6h-68.267v-69.067c-87.787 30.628-181.311 40.865-273.067 30.8v38.267h-68.267v-49.333c-11.442-2.563-22.833-5.517-34.133-8.733v126.333h-102.4z" />
<glyph unicode="&#xe91a;" glyph-name="evasion" d="M512 789.333l-102.4-102.4 238.933-238.933-238.933-238.933 102.4-102.4 341.333 341.333-341.333 341.333zM341.333 618.667l-170.667-170.667 170.667-170.667 51.2 51.2-119.467 119.467 119.467 119.467-51.2 51.2z" />
<glyph unicode="&#xe91b;" glyph-name="npc_tier_custom" d="M546.134 823.476c-136.533 0-204.8-68.267-204.8-68.267v-512l204.8-204.8 204.8 204.8v512c0 0-68.267 68.267-204.8 68.267zM546.134 652.809l50.133-101.667 112.2-16.267-81.2-79.133 19.2-111.665-100.333 52.733-100.333-52.733 19.2 111.665-81.2 79.133 112.2 16.267z" />
<glyph unicode="&#xe91c;" glyph-name="npc_tier_3" d="M512.001 823.476c-136.533 0-204.8-68.267-204.8-68.267v-155.933l204.8 127.933 204.8-127.933v155.933c0 0-68.267 68.267-204.8 68.267zM512.001 646.809l-204.8-128.066v-56.067l204.8 127.933 204.8-127.933v56.067zM512.001 510.209l-204.8-128.066v-56l204.8 127.932 204.8-127.932v56zM512.001 373.676l-204.8-128.067v-2.4l204.8-204.8 204.8 204.8v2.4z" />
<glyph unicode="&#xe91d;" glyph-name="npc_tier_2" d="M512.001 823.471c-136.533 0-204.8-68.267-204.8-68.267v-211.328l204.8 127.933 204.8-127.933v211.328c0 0-68.267 68.267-204.8 68.267zM512.001 591.142l-204.8-127.866v-73.066l204.8 127.933 204.8-127.933v73.066zM512.001 437.543l-204.8-127.933v-66.4l204.8-204.805 204.8 204.805v66.4z" />
<glyph unicode="&#xe91e;" glyph-name="npc_tier_1" d="M512.001 823.476c-136.533 0-204.8-68.267-204.8-68.267v-292.6l204.733 128 204.866-127.933v292.533c0 0-68.267 68.267-204.8 68.267zM511.932 510.209l-204.733-128v-139l204.8-204.8 204.8 204.8v138.867z" />
<glyph unicode="&#xe91f;" glyph-name="free_action" d="M546 721.138v-136.6l-68.133-0.005v-68.267l136.4 0.005v68.267l182.2-136.533-182.2-136.6v68.333l-136.4-0.005v-68.334l68.133 0.006v-136.533l364.133 273.133zM170.6 584.594v-68.267h68.333v68.267zM307.2 584.594v-68.267l102.4-0.068v68.267zM170.6 379.794v-68.334h68.333v68.334zM307.2 379.794v-68.334l102.4-0.067v68.333z" />
<glyph unicode="&#xe920;" glyph-name="reaction" d="M478.272 721.137l-0.271-155.666c-42.42-4.593-84.403-17.495-125.867-38.066l-50.802 76.2-56.666-38.001 48.667-72.933c-30.895-20.724-61.476-44.908-91.733-73.2l-49.933 24.933-30.467-60.999 90.467-45.068 17.4 17.333c44.964 44.964 88.831 78.349 132 101.866-12.142-23.418-19.667-49.584-19.667-77.667 0-93.851 76.748-170.799 170.6-170.799s170.6 76.948 170.6 170.799c0 28.082-7.525 54.249-19.667 77.667 43.169-23.517 87.036-56.902 132-101.866l17.4-17.333 90.467 45.068-30.467 60.999-49.933-24.933c-30.257 28.293-60.838 52.477-91.733 73.2l48.667 72.933-56.666 38.001-50.8-76.2c-41.464 20.572-83.447 33.474-125.867 38.066l0.271 155.666zM512.005 448.137c38.107 0 68.267-30.159 68.267-68.267 0-38.106-30.159-68.266-68.267-68.266s-68.267 30.159-68.267 68.266c0 38.108 30.16 68.267 68.267 68.267z" />
<glyph unicode="&#xe921;" glyph-name="reserve_tac" d="M273.067 789.333l-102.4-102.4v-68.267h34.133l136.533 136.533v34.133h-68.267zM682.667 789.333v-34.133l136.533-136.533h34.133v68.267l-102.4 102.4h-68.267zM512 686.933c-65.98 0-119.467-53.487-119.467-119.467s53.487-119.467 119.467-119.467c65.98 0 119.467 53.487 119.467 119.467s-53.487 119.467-119.467 119.467zM358.4 430.933v-37.4c-15.301-8.295-31.716-17.877-51.2-30.867-3.865-15.458-7.539-27.15-11.333-40.4l216.133-113.2 216.133 113.2c-3.782 13.262-7.477 24.975-11.333 40.4-19.434 12.956-35.852 22.575-51.2 30.867v37.4h-39.333c-21.356-23.875-49.452-40.087-80.133-47.133v-72.333l-34.133-34.133-34.133 34.133v72.333c-30.682 7.044-58.777 23.258-80.133 47.133h-39.333zM170.667 277.333v-68.267l102.4-102.4h68.267v34.133l-136.533 136.533h-34.133zM819.2 277.333l-136.533-136.533v-34.133h68.267l102.4 102.4v68.267h-34.133z" />
<glyph unicode="&#xe922;" glyph-name="reserve_mech" d="M273.067 789.333l-102.4-102.4v-68.267h34.133l136.533 136.533v34.133h-68.267zM682.667 789.333v-34.133l136.533-136.533h34.133v68.267l-102.4 102.4h-68.267zM477.867 686.933v-71.8c-21.692-4.438-41.916-13.070-59.8-24.933l-50.867 50.867-48.267-48.267 50.867-50.867c-11.888-17.901-20.554-38.079-25-59.8h-71.733v-68.267l71.733-0.067c4.457-21.664 13.145-41.855 25-59.733l-50.867-50.867 48.267-48.267 50.867 50.867c17.89-11.907 38.097-20.612 59.8-25.067v-71.667h68.267v71.667h0.067c21.683 4.477 41.843 13.167 59.733 25.067l50.867-50.867 48.267 48.267-50.867 50.867c11.884 17.878 20.595 38.137 25.067 59.8h71.667v68.267h-71.667c-4.46 21.721-13.149 41.898-25.067 59.8l50.867 50.867-48.267 48.267-50.933-50.933c-17.897 11.869-38.046 20.545-59.733 25v71.8h-68.267zM511.933 550.333c56.958 0 102.533-45.308 102.533-102.267s-45.575-102.533-102.533-102.533c-56.958 0-102.333 45.575-102.333 102.533s45.375 102.267 102.333 102.267zM170.667 277.333v-68.267l102.4-102.4h68.267v34.133l-136.533 136.533h-34.133zM819.2 277.333l-136.533-136.533v-34.133h68.267l102.4 102.4v68.267h-34.133z" />
<glyph unicode="&#xe923;" glyph-name="system_point" d="M477.868 755.203l-273.067-273.066v-68.267l273.067-273.067h68.266l273.067 273.067v68.267l-273.067 273.066zM477.868 686.937h68.266v-102.4l102.4-102.4h102.4v-68.267h-102.4l-102.4-102.4v-102.4h-68.266v102.4l-102.4 102.4h-102.4v68.267h102.4l102.4 102.4z" />
<glyph unicode="&#xe924;" glyph-name="generic_item" d="M512.001 760.342l-17.133-9.805-253.467-146.401v-312.466l270.6-156.2 270.6 156.2v312.466zM512.001 681.742l202.333-117.001-202.333-116.731-202.333 116.801z" />
<glyph unicode="&#xe925;" glyph-name="save" d="M512.001 789.341l-295.6-170.666v-341.334l295.6-170.666 295.6 170.666v341.334zM275.534 584.541h472.933l-236.467-409.6-118.267 204.8zM512.001 516.275c-37.703 0-68.267-30.564-68.267-68.267 0 0 0 0 0-0.001v0c0 0 0 0 0 0 0-37.703 30.564-68.267 68.267-68.267v0c37.703 0 68.267 30.564 68.267 68.267 0 0 0 0 0 0.001v0c0 0 0 0 0 0 0 37.703-30.564 68.267-68.267 68.267v0z" />
<glyph unicode="&#xe926;" glyph-name="sensor" d="M507.201 789.142c-80.317-1.032-160.473-27.684-227-79.867-102.074-80.065-153.095-205.223-141.8-329.533h68.467c-11.568 103.792 30.252 208.869 115.667 275.867 109.095 85.574 261.374 87.496 372.667 4.799 89.401-66.426 134.107-173.979 122.133-280.666h68.267c11.587 127.861-42.748 256.206-149.6 335.6-67.868 50.427-148.484 74.849-228.8 73.8zM510.467 652.608c-51.452-0.387-102.918-17.070-145.6-50.4-68.632-53.592-100.626-139.211-88.666-222.466h68.8c-12.87 62.517 9.988 127.972 61.934 168.533 61.2 47.79 146.574 48.513 208.4 1.535 53.076-40.328 76.723-106.682 63.667-170.067h68.533c12.213 84.421-20.709 171.107-90.933 224.467-43.118 32.763-94.682 48.739-146.133 48.4zM512 516.275c-56.554 0-102.4-45.846-102.4-102.4 0.013-44.807 29.155-84.402 71.933-97.734v-107.066l-71.933-68.272v-34.133h204.8v34.133l-71.933 68.272v107.133c42.754 13.324 71.891 52.884 71.933 97.667 0 56.554-45.846 102.4-102.4 102.4z" />
<glyph unicode="&#xe927;" glyph-name="weapon_profile" d="M729.2 824.276l-191.067-126.201 25-93.266-259.533-450.133 12.533-46.667 46.6 12.527 259.534 450.134 93.2 24.999zM258.934 652.742l-122.467-122.396v-287h137.8l39.267 68h-108.734v190.733l82.333 82.401h184.067l20.333 34.866-9.599 33.4zM777.734 652.742l-4.066-68.266h45.667v-190.467l-82.667-82.667h-186.667l-39.2-68h254.334l122.2 122.2v287.2z" />
<glyph unicode="&#xe928;" glyph-name="protocol" d="M512 755.337c-163.659 0-307.094-143.679-307.133-307.333h68.266c0.043 122.248 116.617 239 238.867 239 63.714 0 125.52-31.955 170.4-79.666l-68-22.801 170.667-68.266v195.733l-45.533-63.201c-57.122 64.343-139.169 106.533-227.534 106.533zM512 516.271c0 0 0 0 0 0-37.703 0-68.267-30.564-68.267-68.267 0 0 0 0 0 0v0c0 0 0 0 0 0 0-37.703 30.564-68.267 68.267-68.267 0 0 0 0 0 0v0c0 0 0 0 0 0 37.703 0 68.267 30.564 68.267 68.267 0 0 0 0 0 0v0c0 0 0 0 0 0 0 37.703-30.564 68.267-68.267 68.267 0 0 0 0 0 0v0zM750.867 448.004v-0.065c0-122.274-116.593-238.867-238.867-238.867-63.745 0-125.579 31.915-170.467 79.599l68.067 22.8-170.667 68.266v-195.733l45.468 63.067c57.121-64.264 139.243-106.333 227.6-106.333 163.681 0 307.133 143.519 307.133 307.2v0.066z" />
<glyph unicode="&#xe929;" glyph-name="drone" d="M290.068 789.342c-65.576 0-119.4-53.89-119.4-119.466 0-65.575 53.825-119.399 119.4-119.399 20.455 0 39.504 5.728 56.4 14.933l56.133-56.133-27.133-27.134h-68.267v-68.266h68.267l27.067-27.067-56-56.067c-16.905 9.211-35.996 14.867-56.466 14.867-65.576 0-119.4-53.825-119.4-119.401s53.825-119.466 119.4-119.466 119.467 53.892 119.467 119.466c0 20.381-5.661 39.349-14.8 56.201l56.067 56.133 27.067-27.066h68.267l27 26.999 56.066-56.066c-9.144-16.856-14.8-35.814-14.8-56.201 0-65.575 53.825-119.466 119.4-119.466s119.467 53.892 119.467 119.466c0 65.576-53.891 119.401-119.467 119.401-20.386 0-39.345-5.651-56.2-14.8l-56.067 56.067 27 27h68.267v68.266h-68.267l-27.067 27.067 56.133 56.067c16.852-9.134 35.819-14.8 56.2-14.8 65.575 0 119.467 53.825 119.467 119.399 0 65.576-53.891 119.466-119.467 119.466s-119.4-53.89-119.4-119.466c0-20.471 5.652-39.494 14.867-56.4l-56.067-56-27.067 27.066h-68.267l-27.133-27.133-56.133 56.134c9.202 16.895 14.933 35.877 14.933 56.333 0 65.576-53.891 119.466-119.467 119.466zM290.068 721.076c28.681 0 51.2-22.52 51.2-51.201s-22.519-51.134-51.2-51.134c-28.682 0-51.133 22.453-51.133 51.134s22.452 51.201 51.133 51.201zM733.801 721.076c28.681 0 51.133-22.52 51.133-51.201s-22.452-51.134-51.133-51.134c-28.682 0-51.133 22.453-51.133 51.134s22.452 51.201 51.133 51.201zM290.068 277.342c28.681 0 51.2-22.451 51.2-51.134 0-28.681-22.519-51.199-51.2-51.199s-51.133 22.518-51.133 51.199c0 28.682 22.452 51.134 51.133 51.134zM733.801 277.342c28.681 0 51.133-22.451 51.133-51.134 0-28.681-22.452-51.199-51.133-51.199s-51.133 22.518-51.133 51.199c0 28.682 22.452 51.134 51.133 51.134z" />
<glyph unicode="&#xe92a;" glyph-name="skill" d="M511.934 789.275c-188.109 0-341.2-153.091-341.2-341.2s153.091-341.4 341.2-341.4c188.109 0 341.4 153.291 341.4 341.4s-153.291 341.2-341.4 341.2zM511.934 720.942c151.215 0 273.133-121.652 273.133-272.867s-121.919-273.133-273.133-273.133-272.867 121.919-272.867 273.133c0 151.215 121.652 272.867 272.867 272.867zM512.002 618.675l-50.133-101.666-112.2-16.267 81.2-79.133-19.2-111.667 100.333 52.733 100.333-52.733-19.2 111.667 81.2 79.133-112.2 16.267z" />
<glyph unicode="&#xe92b;" glyph-name="talent" d="M511.8 706.874l-156.266-156.4 156.4-156.4 156.467 156.2zM307.2 502.074l-156.466-156.533 156.466-156.467 146.533 146.534-0.142 0.129 9.999 9.934zM716.667 502.005l-156.333-156.333 9.934-9.934-0.068-0.068 146.466-146.599 156.467 156.467z" />
<glyph unicode="&#xe92c;" glyph-name="grenade" d="M307.2 755.208v-68.266h68.267v-68.267h204.8v34.133l136.533-170.666v-204.8l34.133-34.134h34.133v238.934l-136.533 182.066v91zM375.467 550.408c-136.533-136.533-34.133-307.2 34.133-409.6h136.533c68.267 102.4 170.667 273.067 34.133 409.6z" />
<glyph unicode="&#xe92d;" glyph-name="deployable" d="M443.733 789.333v-238.933h-68.267l136.533-170.667 136.533 170.667h-68.267v238.933h-136.533zM363.067 456.667l-192.4-76.933v-136.533l341.333-136.533 341.333 136.533v136.533l-192.4 76.933-41.333-51.667 148.4-59.4-256-102.4-256 102.4 148.467 59.4-41.4 51.667z" />
<glyph unicode="&#xe92e;" glyph-name="content_manager" d="M512.001 755.208l-341.333-136.533v-136.534l341.333-136.533 341.333 136.533v136.534zM512.001 686.941l256-102.4-256-102.4-256 102.4zM170.667 413.875v-136.534l341.333-136.533 341.333 136.533v136.534l-341.333-136.534z" />
<glyph unicode="&#xe92f;" glyph-name="campaign" d="M783.2 758.208c-47.007-0.741-115.118-31.086-191.422-83.441l-1.645-1.16c-23.319 8.351-50.222 13.178-78.253 13.178-65.911 0-125.589-26.688-168.817-69.847l0.003 0.003c-43.124-43.219-69.79-102.875-69.79-168.759 0-26.197 4.216-51.409 12.007-74.995l-0.483 1.688c-86.848-119.293-123.807-221.094-86.609-258.724l0.009-0.009c39.048-38.703 147.356 2.632 270.336 95.098l2.197 1.702c12.469-2.307 26.816-3.627 41.471-3.627 65.869 0 125.513 26.654 168.734 69.765l-0.005-0.005c43.193 43.231 69.907 102.934 69.907 168.876 0 16.463-1.665 32.537-4.836 48.063l0.262-1.538c81.906 115.232 115.899 212.667 79.537 249.196l-0.004 0.004c-0.005 0.005-0.011 0.011-0.017 0.017-10.191 10.191-25.143 14.881-43.876 14.592l1.293-0.075zM732.534 721.008c11.615 0.687 21.434-2.047 27.932-8.526l0.001-0.001c20.621-20.822 3.059-75.487-41.379-144.889l-0.288-0.444c-10.931 18.953-23.482 35.303-37.882 49.815l0.015-0.015c-20.337 20.335-44.324 37.021-70.893 48.992l-1.508 0.608c51.063 33.489 94.24 52.914 123.061 54.489l0.94-0.022zM291.334 356.674c12.652-30.184 30.13-55.955 51.737-77.603l-0.004 0.004c15.766-15.697 33.723-29.213 53.367-40.044l1.233-0.623c-80.852-55.893-145.197-79.733-168.196-56.937l-0.004 0.004c-23.422 23.674 2.466 91.052 61.070 174.093l0.797 1.106z" />
<glyph unicode="&#xe930;" glyph-name="encounter" d="M238.934 772.274l-17.067-34.133h-85.333v-34.133l68.267-17.068v-51.199l34.133-17.066 17.067-51.201h34.133l17.067 51.201 34.133 17.066v51.199l68.267 17.068v34.133h-85.333l-17.067 34.133zM716.801 772.274l-17.067-34.133h-85.333v-34.133l68.267-17.068v-51.199l34.133-17.066 17.067-51.201h34.133l17.067 51.201 34.133 17.066v51.199l68.267 17.068v34.133h-85.333l-17.067 34.133zM136.534 669.874v-102.4l34.133-17.066v110.934zM409.601 669.874l-34.133-8.527v-59.733h34.133zM614.401 669.874v-68.266h34.133v59.733zM887.467 669.874l-34.133-8.527v-110.934l34.133 17.066zM460.801 618.675l-25.6-51.201h-128v-51.199l102.4-25.6v-76.8l51.2-25.6 25.6-76.8h51.2l25.6 76.8 51.2 25.6v76.8l102.4 25.6v51.199h-128l-25.6 51.201zM204.801 584.541v-153.599h34.133v102.4l-17.067 17.066v34.133zM802.134 584.541v-34.133l-17.067-17.066v-102.4h34.133v153.599zM512.001 567.474l51.2-51.199-51.2-51.201-51.2 51.201zM307.201 465.074v-153.599l51.2-25.6v166.4zM716.801 465.074l-51.2-12.798v-166.4l51.2 25.6zM409.601 337.075v-230.4h51.2v153.599l-25.6 25.6v51.201zM588.801 337.075v-51.201l-25.6-25.6v-153.599h51.2v230.4z" />
<glyph unicode="&#xe931;" glyph-name="compendium" d="M512.001 823.475l-136.533-136.534 136.533-136.533 136.533 136.533zM238.934 550.408v-238.933c102.4-34.134 170.667 0 273.067-102.4 102.4 102.4 170.667 68.266 273.067 102.4v238.933c-102.4-34.133-170.793-0.645-273.067-102.4-102.4 102.4-170.667 68.267-273.067 102.4zM170.667 482.141v-273.066l273.067-68.267v-34.133h136.533v34.133l273.067 68.267v273.066l-34.133-8.527v-230.4l-273.067-68.267v-25.599l-34.133-8.527-34.133 8.527v25.599l-273.067 68.267v230.4z" />
<glyph unicode="&#xe932;" glyph-name="mine" d="M477.867 789.342v-139.467c-32.065-5.623-60.518-17.963-84.94-35.55l0.607 0.416-74.6 74.6-48.267-48.267 74.533-74.533c-17.109-23.844-29.385-52.324-34.757-83.176l-0.176-1.224h-139.6v-68.267h139.467c5.623-32.065 17.962-60.518 35.549-84.94l-0.416 0.607-74.6-74.6 48.267-48.267 74.467 74.466c23.866-17.095 52.372-29.35 83.247-34.692l1.22-0.175v-139.599h68.267v139.467c32.065 5.623 60.518 17.963 84.94 35.55l-0.607-0.416 74.6-74.6 48.267 48.267-74.533 74.533c17.109 23.844 29.385 52.324 34.757 83.176l0.176 1.224h139.6v68.267h-139.467c-5.623 32.065-17.962 60.518-35.549 84.94l0.416-0.607 74.6 74.6-48.267 48.267-74.533-74.533c-23.844 17.109-52.325 29.385-83.176 34.756l-1.224 0.176v139.601zM439.601 568.675l72.4-72.401 72.4 72.401 48.267-48.267-72.4-72.401 72.4-72.399-48.267-48.267-72.4 72.401-72.4-72.401-48.267 48.267 72.4 72.399-72.4 72.401z" />
<glyph unicode="&#xe933;" glyph-name="ship" d="M853.332 789.334l-170.666-68.267-102.4-68.267v-34.133l-81.933-54.6-20.467 20.467v34.133h-273.066l-68.267-34.133 170.666-102.4h34.133l20.467-20.467-20.467-47.8 29.867-52.2 163.4 143.066h34.133v-34.133l-143-163.466 52.133-29.8 47.8 20.467 20.467-20.467v-34.133l102.4-170.666 34.133 68.267v273.066h-34.133l-20.467 20.467 54.6 81.933h34.133l68.267 102.4 68.267 170.666zM273.066 277.334l-102.4-170.666 170.666 102.4v68.267h-68.267z" />
<glyph unicode="&#xe934;" glyph-name="vehicle" d="M409.599 686.934l-34.133-68.267 34.133-34.133h204.8l34.133 34.133-34.133 68.267h-204.8zM273.066 550.401l-102.4-136.533h-34.133v-68.267h40.133c-3.755-10.153-5.95-21.879-6-34.111v-0.022c0-56.554 45.846-102.4 102.4-102.4v0c56.554 0 102.4 45.846 102.4 102.4v0c-0.027 12.245-2.199 23.975-6.16 34.845l0.227-0.712h40.067l34.133-34.133h136.533l34.133 34.133h40.133c-3.755-10.153-5.95-21.879-6-34.111v-0.022c0-56.554 45.846-102.4 102.4-102.4v0c56.554 0 102.4 45.846 102.4 102.4v0c-0.027 12.245-2.199 23.975-6.16 34.845l0.227-0.712h40.067v68.267h-34.133l-102.4 136.533h-68.267l-68.267-34.133h-204.8l-68.267 34.133h-68.267z" />
<glyph unicode="&#xe935;" glyph-name="accuracy" d="M512.032 789.323l-295.557-170.677v-341.354l295.557-170.677 295.557 170.677v341.354zM477.974 618.646h68.245v-136.619h136.619v-68.245h-136.619v-136.49h-68.245v136.49h-136.619v68.245h136.619z" />
<glyph unicode="&#xe936;" glyph-name="activate" d="M511.903 837.572l-389.474-389.474 24.124-24.253 365.35-365.608 389.861 389.861zM511.903 741.074l293.106-292.977-293.106-293.106-292.977 293.106zM443.787 604.197c-60.118-26.447-102.432-86.564-102.432-156.099 0-93.918 76.76-170.806 170.548-170.806 93.918 0 170.806 76.889 170.806 170.806 0 69.535-42.315 129.524-102.432 155.97v-79.985c20.899-18.706 34.187-45.54 34.187-75.986 0-57.021-45.54-102.561-102.561-102.561-56.892 0-102.303 45.54-102.303 102.561 0 30.446 13.288 57.408 34.187 75.986zM477.845 652.704v-204.606h68.374v204.606z" />
<glyph unicode="&#xe937;" glyph-name="range" d="M248.985 48.432l-136.619 136.49 48.249 48.249 136.619-136.49zM180.611 164.925l614.464 614.335 48.249-48.249-614.464-614.335zM482.876 525.373l106.431-106.56-48.249-48.249-106.431 106.56zM863.191 661.218l-136.619 136.49 48.249 48.249 136.619-136.49z" />
<glyph unicode="&#xe938;" glyph-name="burst" d="M887.573 447.968c0-101.271-43.992-199.446-110.044-265.498s-164.227-110.044-265.498-110.044c-101.271 0-199.446 43.992-265.498 110.044s-110.044 164.227-110.044 265.498c0 101.271 43.992 199.446 110.044 265.498s164.227 110.044 265.498 110.044c101.271 0 199.446-43.992 265.498-110.044s110.044-164.227 110.044-265.498zM729.281 665.217c-57.537 57.408-129.911 89.918-217.249 89.918s-159.712-32.51-217.249-89.918c-57.408-57.537-89.918-129.911-89.918-217.249s32.51-159.712 89.918-217.249c57.537-57.408 129.911-89.918 217.249-89.918s159.712 32.51 217.249 89.918c57.408 57.537 89.918 129.911 89.918 217.249s-32.51 159.712-89.918 217.249zM341.354 447.968l170.677 170.677 170.677-170.677-170.677-170.677z" />
<glyph unicode="&#xe939;" glyph-name="cone" d="M390.248 833.185c243.309-67.6 439.4-263.563 507-506.871l9.031-32.768-749.793-200.994 200.994 749.664zM252.984 189.050l568.924 152.487c-66.181 211.573-204.864 350.127-416.437 416.308z" />
<glyph unicode="&#xe93a;" glyph-name="line" d="M674.452 755.265l-542.219-541.961 48.378-48.378 590.21 590.339zM819.199 706.887l-590.21-590.339 48.12-48.249 542.090 541.832zM580.277 789.194v-68.245h204.864v-204.606h68.245v272.851z" />
<glyph unicode="&#xe93b;" glyph-name="corebonus" d="M375.412 447.968l136.619 136.619 136.49-136.619-136.49-136.49zM477.845 823.381v-88.241l-102.303-102.303-44.121 44.121-48.378-48.378 44.121-44.121-102.303-102.303h-88.241v-68.245h88.241l102.432-102.432-44.25-44.25 48.378-48.12 44.121 44.121 102.303-102.303v-88.499h68.245v88.241l102.561 102.561 44.121-44.121 48.12 48.12-44.121 44.121 102.432 102.561h88.37v68.245h-88.499l-102.303 102.432 44.121 43.992-48.12 48.378-44.121-44.121-102.561 102.561v87.983zM512.032 672.7l224.86-224.731-224.86-224.86-224.731 224.86z" />
<glyph unicode="&#xe93c;" glyph-name="burn" d="M546.090 857.568c0 0-138.038-139.586-170.677-204.735-34.058-68.245-21.028-81.146-34.058-136.619-23.35-98.949-102.432-102.303-102.432-238.922 0-100.11 70.438-153.003 142.554-179.837-23.866 21.802-40.121 48.12-40.121 77.534 0 72.76 136.49 204.735 136.49 204.735s213.766-116.365 204.864-204.735c-2.064-20.254-11.224-40.379-23.995-58.828 65.923 33.929 126.299 87.209 126.299 161.131 0 204.864-102.303 307.296-102.303 307.296s36.122-139.973-34.187-136.619c-34.058 1.677-47.862 61.666-68.245 102.432-34.187 68.245-68.245 68.245-68.245 136.49 0 102.432 34.058 170.677 34.058 170.677z" />
<glyph unicode="&#xe93d;" glyph-name="energy" d="M580.277 857.697l-341.354-477.974h273.109l-68.245-341.225 341.354 477.845h-273.109z" />
<glyph unicode="&#xe93e;" glyph-name="explosive" d="M512.032 823.51l-54.699-246.147-150.165 75.47 75.47-150.165-246.147-54.57 246.147-54.699-75.47-150.165 150.165 75.47 54.699-246.147 54.57 246.147 150.165-75.47-75.47 150.165 246.147 54.699-246.147 54.57 75.47 150.165-150.165-75.47z" />
<glyph unicode="&#xe93f;" glyph-name="heat" d="M512.032 857.568c-56.763 0-102.432-45.669-102.432-102.303v-409.987c-42.96-32.123-68.245-82.565-68.245-136.232 0-94.176 76.373-170.677 170.677-170.677 94.176 0 170.677 76.502 170.677 170.677-0.129 53.667-25.415 104.109-68.245 136.232v409.987c0 56.634-45.798 102.303-102.432 102.303zM477.845 550.401h68.245v-244.986c40.895-14.449 68.245-53.022 68.374-96.369 0-56.505-45.927-102.432-102.432-102.432-56.634 0-102.432 45.927-102.432 102.432 0 43.347 27.35 81.92 68.245 96.369zM682.709 516.213h136.49v-68.245h-136.49v68.245zM682.709 686.891h136.49v-68.245h-136.49v68.245z" />
<glyph unicode="&#xe940;" glyph-name="kinetic" d="M750.954 447.968c0-63.472-28.64-127.589-70.051-168.871-41.282-41.411-105.399-70.051-168.871-70.051s-127.589 28.64-168.871 70.051c-41.411 41.282-70.051 105.399-70.051 168.871s28.64 127.589 70.051 168.871c41.282 41.411 105.399 70.051 168.871 70.051s127.589-28.64 168.871-70.051c41.411-41.282 70.051-105.399 70.051-168.871zM632.654 568.591c-32.768 32.768-71.083 49.926-120.622 49.926s-87.854-17.158-120.622-49.926c-32.768-32.768-49.926-71.083-49.926-120.622s17.158-87.854 49.926-120.622c32.768-32.768 71.083-49.926 120.622-49.926s87.854 17.158 120.622 49.926c32.768 32.768 49.926 71.083 49.926 120.622s-17.158 87.854-49.926 120.622zM170.677 106.614c273.109 170.677 512.032 409.599 682.709 682.709-273.109-170.677-512.032-409.599-682.709-682.709z" />
<glyph unicode="&#xe941;" glyph-name="variable" d="M374.638 213.69c0-55.788-44.59-101.013-99.594-101.013v0c-55.004 0-99.594 45.225-99.594 101.013v0c0 55.788 44.59 101.013 99.594 101.013v0c55.004 0 99.594-45.225 99.594-101.013v0zM850.548 686.891c0-55.788-44.59-101.013-99.594-101.013v0c-55.004 0-99.594 45.225-99.594 101.013v0c0 55.788 44.59 101.013 99.594 101.013v0c55.004 0 99.594-45.225 99.594-101.013v0zM611.626 447.968c0-55.788-44.59-101.013-99.594-101.013v0c-55.004 0-99.594 45.225-99.594 101.013v0c0 55.788 44.59 101.013 99.594 101.013v0c55.004 0 99.594-45.225 99.594-101.013v0z" />
<glyph unicode="&#xe942;" glyph-name="deactivate" d="M512.032 837.572l-389.732-389.474 24.124-24.253 365.608-365.608 389.603 389.861zM477.845 652.704h68.245v-204.606h-68.245zM443.787 604.197v-80.114c-20.899-18.577-34.187-45.54-34.187-75.986 0-57.021 45.411-102.561 102.303-102.561 57.021 0 102.561 45.54 102.561 102.561 0 30.446-13.288 57.279-34.187 75.986v79.985c60.118-26.447 102.432-86.435 102.432-155.97 0-93.918-76.889-170.806-170.806-170.806-93.789 0-170.548 76.889-170.548 170.806 0 69.535 42.315 129.653 102.432 156.099z" />
<glyph unicode="&#xe943;" glyph-name="difficulty" d="M512.032 789.323l-295.686-170.677v-341.354l295.686-170.677 295.557 170.677v341.354zM512.032 710.499l227.312-131.201v-262.531l-227.312-131.33-227.312 131.33v262.531zM682.709 413.781h-341.354v68.374h341.354z" />
<glyph unicode="&#xe944;" glyph-name="frame" d="M477.587 106.614h-102.174v307.296h51.087v-68.374l51.087-34.058zM443.787 789.323l-34.187-68.245h-170.677v-68.245l136.49-34.187v-102.432l68.374-34.058 34.058-102.432h68.245l34.187 102.432 68.245 34.058v102.432l136.49 34.187v68.245h-170.677l-34.058 68.245zM512.032 721.078l68.245-68.245-68.245-68.245-68.245 68.245zM546.606 106.614h101.916v307.296h-51.087v-68.374l-50.829-34.058zM785.012 584.588l-68.245-17.158v-221.764l68.245 34.058zM238.922 584.588l68.245-17.158v-221.893l-68.245 34.187z" />
<glyph unicode="&#xe945;" glyph-name="melee" d="M853.386 789.323l-170.677-68.245-307.296-307.167 102.432-102.432 307.167 307.167zM602.208 562.527l24.253-24.253-170.548-170.548-24.124 24.124zM214.798 199.113l204.864 204.735 48.249-48.249-204.864-204.735zM365.479 472.093l170.677-170.677-48.249-48.249-170.677 170.677z" />
<glyph unicode="&#xe946;" glyph-name="overcharge" d="M610.852 653.22l194.286 28.64-71.212-183.191 143.715-134.168-187.577-58.44-15.352-195.963-162.679 110.173-162.679-110.173-15.352 195.963-187.706 58.44 143.715 134.168-71.341 183.191 194.544-28.64 98.82 169.774zM449.076 578.911l-124.105 18.319 45.54-116.881-91.853-85.661 119.848-37.283 9.676-125.008 103.851 70.438 103.851-70.438 9.676 125.008 119.719 37.283-91.595 85.661 45.411 116.881-124.105-18.319-62.956 108.366zM580.277 447.968c0-37.691-30.554-68.245-68.245-68.245v0c-37.691 0-68.245 30.554-68.245 68.245v0c0 37.691 30.554 68.245 68.245 68.245v0c37.691 0 68.245-30.554 68.245-68.245v0z" />
<glyph unicode="&#xe947;" glyph-name="pilot" d="M358.512 499.184v-37.283c-15.352-8.386-31.736-17.932-51.216-30.962-34.187-136.49-68.374-196.35-68.374-255.951 28.382-11.353 57.924-20.125 87.983-27.737l19.738 75.47c67.342-17.287 163.969-27.35 211.831-24.253l80.114-63.73c50.442 8.515 99.852 21.544 146.553 40.25 0 58.311-34.187 119.461-68.245 255.951-19.48 13.030-35.864 22.576-51.216 30.962v37.283h-39.347c-29.156-32.51-70.696-51.087-114.301-51.087s-85.145 18.577-114.301 51.087h-5.16zM614.464 396.365l68.245-68.374-68.245-68.245-68.245 68.245zM631.493 635.804c0-65.977-53.485-119.461-119.461-119.461v0c-65.977 0-119.461 53.485-119.461 119.461v0c0 65.977 53.485 119.461 119.461 119.461v0c65.977 0 119.461-53.485 119.461-119.461v0z" />
<glyph unicode="&#xe948;" glyph-name="thrown" d="M853.386 618.646c0-94.262-76.415-170.677-170.677-170.677v0c-94.262 0-170.677 76.415-170.677 170.677v0c0 94.262 76.415 170.677 170.677 170.677v0c94.262 0 170.677-76.415 170.677-170.677v0zM146.553 142.423l100.162 100.162 59.933-59.933-100.162-100.162-59.933 59.933zM273.99 269.86l100.162 100.162 59.933-59.933-100.162-100.162-59.933 59.933zM399.421 395.291l100.162 100.162 59.933-59.933-100.162-100.162-59.933 59.933z" />
<glyph unicode="&#xe949;" glyph-name="reactor" d="M853.386 447.968c0-91.853-40.121-181.385-99.981-241.373-59.989-59.86-149.52-99.981-241.373-99.981s-181.385 40.121-241.373 99.981c-59.86 59.989-99.981 149.52-99.981 241.373s40.121 181.385 99.981 241.373c59.989 59.86 149.52 99.981 241.373 99.981s181.385-40.121 241.373-99.981c59.86-59.989 99.981-149.52 99.981-241.373zM705.156 641.093c-51.345 51.216-115.333 79.856-193.125 79.856s-141.779-28.64-193.125-79.856c-51.216-51.345-79.856-115.333-79.856-193.125s28.64-141.779 79.856-193.125c51.345-51.216 115.333-79.856 193.125-79.856s141.779 28.64 193.125 79.856c51.216 51.345 79.856 115.333 79.856 193.125s-28.64 141.779-79.856 193.125zM614.335 447.968c0-36.509-19.48-70.309-51.216-88.499l51.216-88.886c63.472 36.638 102.432 104.238 102.432 177.386zM307.167 447.968c0-73.147 39.089-140.747 102.432-177.386l51.216 88.886c-31.607 18.19-51.216 51.99-51.216 88.499zM507.258 652.704c-34.316-0.774-67.987-10.192-97.659-27.35l51.216-88.757c15.61 9.031 33.155 13.804 51.216 13.804 17.932 0 35.606-4.773 51.087-13.804l51.216 88.757c-32.51 18.835-69.535 28.253-107.076 27.35zM546.219 447.968c0-18.881-15.306-34.187-34.187-34.187v0c-18.881 0-34.187 15.306-34.187 34.187v0c0 18.881 15.306 34.187 34.187 34.187v0c18.881 0 34.187-15.306 34.187-34.187v0zM578.471 447.968c0-15.997-9.16-36.767-19.48-46.959-10.192-10.321-30.962-19.48-46.959-19.48s-36.767 9.16-46.959 19.48c-10.321 10.192-19.48 30.962-19.48 46.959s9.16 36.767 19.48 46.959c10.192 10.321 30.962 19.48 46.959 19.48s36.767-9.16 46.959-19.48c10.321-10.192 19.48-30.962 19.48-46.959zM514.096 448.742c-0.258 0.129-0.387 0.387-0.645 0.645s-0.516 0.387-0.645 0.645c-0.129-0.129-0.387-0.129-0.774-0.129s-0.645 0-0.774 0.129c-0.129-0.258-0.387-0.387-0.645-0.645s-0.387-0.516-0.645-0.645c0.129-0.129 0.129-0.387 0.129-0.774s0-0.645-0.129-0.774c0.258-0.129 0.387-0.387 0.645-0.645s0.516-0.387 0.645-0.645c0.129 0.129 0.387 0.129 0.774 0.129s0.645 0 0.774-0.129c0.129 0.258 0.387 0.387 0.645 0.645s0.387 0.516 0.645 0.645c-0.129 0.129-0.129 0.387-0.129 0.774s0 0.645 0.129 0.774z" />
<glyph unicode="&#xe94a;" glyph-name="repair" d="M217.636 253.812l136.49 136.619c34.187 34.058 34.187 136.49 68.245 170.677 34.187 34.058 67.471 42.702 136.619 34.058l-88.886-87.338 14.578-89.273 87.854-14.578 88.757 88.886c9.289-61.408 0-102.432-34.058-136.619-34.187-34.058-136.619-34.058-170.677-68.245l-81.146-78.953h-68.245zM841.775 638.384v-380.702l-329.744-190.415-329.744 190.415v380.702l329.744 190.415zM250.533 598.907v-301.878l261.499-150.939 261.499 150.939v301.878l-261.499 151.068z" />
<glyph unicode="&#xe94b;" glyph-name="role-artillery" d="M477.845 789.323l-68.245-136.49-68.245-546.219h341.354l-68.374 546.219-68.245 136.49v-546.090h-68.245zM273.109 106.614l34.058 273.109-68.245-68.245-102.432-204.864zM750.954 106.614l-34.187 273.109 68.245-68.245 102.432-204.864z" />
<glyph unicode="&#xe94c;" glyph-name="role-controller" d="M291.428 625.483c-91.337-44.25-154.809-137.78-154.809-245.76 0-150.423 122.686-273.109 273.109-273.109s272.851 122.686 272.851 273.109c0 106.947-62.053 199.575-151.842 244.341-18.964-14.707-33.284-33.671-42.186-55.086 74.050-30.833 125.654-103.722 125.654-189.254 0-113.527-90.95-204.864-204.477-204.864s-204.864 91.337-204.864 204.864c0 61.15 26.705 115.72 68.89 153.261 1.677 31.736 7.611 62.827 17.674 92.499zM614.206 789.452c-150.294 0-272.851-122.815-272.851-273.238 0-106.818 62.053-199.575 151.971-244.341 18.706 14.449 32.897 33.542 41.928 55.215-73.921 30.833-125.525 103.722-125.525 189.125 0 113.527 91.079 204.864 204.477 204.864 113.527 0 204.864-91.337 204.864-204.864 0-61.15-26.576-115.72-68.761-153.132-1.548-31.994-7.611-62.956-17.545-92.499 91.208 44.379 154.68 137.78 154.68 245.631 0 150.423-122.815 273.238-273.238 273.238z" />
<glyph unicode="&#xe94d;" glyph-name="role-striker" d="M512.032 823.51l-102.432-204.864 68.245-68.245v-443.787l34.187-34.058 34.058 34.058v443.787l68.374 68.245zM846.936 651.93l-166.162-157.389 40.766-87.467-93.402-256.596 20.383-43.863 43.734 20.512 93.402 256.596 87.467 40.766zM176.999 651.93l-26.189-227.441 87.467-40.766 93.402-256.596 43.734-20.512 20.512 43.863-93.402 256.596 40.766 87.467z" />
<glyph unicode="&#xe94e;" glyph-name="role-support" d="M156.615 427.972l355.416 355.416 355.416-355.416-96.498-96.498-258.918 258.918-258.918-258.918zM283.043 199.113l228.989 228.86 228.86-228.86-48.249-48.249-180.611 180.611-180.74-180.611z" />
<glyph unicode="&#xe94f;" glyph-name="role-tank" d="M512.032 823.51c0 0-170.677-102.432-307.296-102.432 0 0 10.192-184.481 34.187-273.109 22.705-83.597 49.926-169.903 102.432-238.922 44.121-57.924 102.432-102.432 170.677-136.49 68.245 34.058 126.557 78.566 170.677 136.49 52.377 69.019 79.727 155.325 102.303 238.922 23.995 88.628 34.187 273.109 34.187 273.109-136.49 0-307.167 102.432-307.167 102.432zM512.032 749.717c104.754-62.44 165.259-74.308 231.956-90.95-11.998-190.415-54.699-386.894-231.956-509.451z" />
<glyph unicode="&#xe94f;" glyph-name="role-defender" d="M512.032 823.51c0 0-170.677-102.432-307.296-102.432 0 0 10.192-184.481 34.187-273.109 22.705-83.597 49.926-169.903 102.432-238.922 44.121-57.924 102.432-102.432 170.677-136.49 68.245 34.058 126.557 78.566 170.677 136.49 52.377 69.019 79.727 155.325 102.303 238.922 23.995 88.628 34.187 273.109 34.187 273.109-136.49 0-307.167 102.432-307.167 102.432zM512.032 749.717c104.754-62.44 165.259-74.308 231.956-90.95-11.998-190.415-54.699-386.894-231.956-509.451z" />
<glyph unicode="&#xe950;" glyph-name="size-1" d="M526.768 847.214l380.065-219.429v-438.857l-380.065-219.429-380.058 219.429v438.857zM489.611 425.326h147.471v33.426h-99.387l99.131 124.328v31.759h-144.772v-33.558h95.4l-97.843-122.529zM803.972 614.839h-138.986v-189.513h143.609v34.070h-104.909v48.728h92.058v32.914h-92.058v40.243h100.286zM426.737 425.326h39.344v189.513h-39.344zM245.065 483.825c0-19.712 7.073-35.211 21.219-46.482 14.139-11.271 33.558-16.903 58.244-16.903 24.166 0 42.876 5.72 56.123 17.167 13.239 11.44 19.858 25.819 19.858 43.132 0 16.889-5.654 29.784-16.969 38.7-7.285 5.742-18.088 10.328-32.402 13.758l-32.651 7.841c-12.603 2.999-20.831 5.617-24.686 7.841-6.005 3.343-9.004 8.404-9.004 15.177 0 7.365 3.043 13.115 9.128 17.225 6.085 4.118 14.226 6.173 24.43 6.173 9.172 0 16.845-1.587 23.011-4.762 9.26-4.798 14.234-12.895 14.914-24.298h38.064c-0.688 20.144-8.082 35.511-22.184 46.095-14.095 10.584-31.13 15.879-51.105 15.879-23.91 0-42.043-5.617-54.382-16.845-12.347-11.227-18.52-25.329-18.52-42.299 0-18.6 6.385-32.271 19.156-41.011 7.548-5.23 21.175-10.072 40.887-14.533l20.056-4.498c11.747-2.575 20.363-5.53 25.849-8.872 5.486-3.43 8.229-8.272 8.229-14.526 0-10.715-5.53-18.044-16.589-21.987-5.829-2.055-13.414-3.087-22.755-3.087-15.601 0-26.617 3.899-33.046 11.703-3.511 4.286-5.873 10.752-7.073 19.412zM515.65 290.582v-128.571h37.537v186.427h-30.471c0-1.631-0.468-4.111-1.412-7.453-1.631-5.573-4.030-10.028-7.197-13.378-4.63-4.879-10.635-8.141-18-9.765-4.63-1.031-12.734-1.807-24.305-2.319v-24.942z" />
<glyph unicode="&#xe951;" glyph-name="size-2" d="M730.448 346.734l2.282-1.317v-250.617l-217.037-125.301-217.037 125.301v250.617l0.234 0.571-217.037 125.301v250.617l217.037 125.308 215.135-124.211 215.135 124.211 217.037-125.308v-250.617zM232.324 483.825c0-19.712 7.073-35.211 21.219-46.482 14.139-11.271 33.558-16.903 58.244-16.903 24.166 0 42.876 5.72 56.115 17.167 13.246 11.44 19.866 25.819 19.866 43.132 0 16.889-5.654 29.784-16.969 38.7-7.285 5.742-18.088 10.328-32.402 13.758l-32.658 7.841c-12.595 2.999-20.824 5.617-24.686 7.841-5.998 3.343-8.997 8.404-8.997 15.177 0 7.365 3.043 13.115 9.128 17.225 6.085 4.118 14.226 6.173 24.43 6.173 9.172 0 16.845-1.587 23.011-4.762 9.26-4.798 14.234-12.895 14.914-24.298h38.056c-0.68 20.144-8.075 35.511-22.177 46.095s-31.137 15.879-51.105 15.879c-23.918 0-42.043-5.617-54.389-16.845-12.339-11.227-18.512-25.329-18.512-42.299 0-18.6 6.385-32.271 19.156-41.011 7.548-5.23 21.175-10.072 40.887-14.533l20.056-4.498c11.747-2.575 20.356-5.53 25.841-8.872 5.486-3.43 8.229-8.272 8.229-14.526 0-10.715-5.522-18.044-16.581-21.987-5.829-2.055-13.414-3.087-22.755-3.087-15.601 0-26.617 3.899-33.046 11.703-3.511 4.286-5.873 10.752-7.073 19.412zM413.996 425.326h39.344v189.513h-39.344zM476.869 425.326h147.471v33.426h-99.387l99.131 124.328v31.759h-144.772v-33.558h95.4l-97.843-122.529zM791.223 614.839h-138.986v-189.513h143.616v34.070h-104.916v48.728h92.058v32.914h-92.058v40.243h100.286zM576.702 162.011v32.271h-81.386c2.319 3.855 5.164 7.241 8.55 10.16 3.387 2.911 9.669 7.629 18.834 14.139l14.658 10.416c12.347 8.741 21.219 16.669 26.617 23.786 8.229 10.715 12.347 22.974 12.347 36.769 0 18-5.829 32.468-17.488 43.396s-27.341 16.391-47.060 16.391c-24.942 0-42.299-9.296-52.070-27.897-5.142-9.772-8.016-22.587-8.616-38.444h35.621c0.424 10.459 1.799 18.088 4.111 22.886 4.030 8.309 11.615 12.471 22.755 12.471 8.148 0 14.402-2.619 18.776-7.841 4.367-5.23 6.554-11.791 6.554-19.675 0-9.684-3.811-18.6-11.44-26.741-4.974-5.23-15.901-13.89-32.79-25.973-19.456-13.883-31.795-27.041-37.025-39.468-5.398-11.059-8.272-23.274-8.616-36.645z" />
<glyph unicode="&#xe952;" glyph-name="size-3" d="M693.299 700.401h169.355l84.677-146.666-84.677-146.666 84.677-146.951-84.677-146.666h-166.502l-83.251-144.201h-169.355l-83.975 145.452-1.456-2.509h-169.355l-84.677 146.666 84.173 145.796h-1.777l-84.677 146.666 84.677 146.666h169.34l-1.477 2.56 84.677 146.666h169.355zM242.871 483.825c0-19.712 7.066-35.211 21.211-46.482s33.558-16.903 58.244-16.903c24.174 0 42.876 5.72 56.123 17.167 13.239 11.44 19.866 25.819 19.866 43.132 0 16.889-5.661 29.784-16.976 38.7-7.285 5.742-18.081 10.328-32.395 13.758l-32.658 7.841c-12.603 2.999-20.831 5.617-24.686 7.841-6.005 3.343-9.004 8.404-9.004 15.177 0 7.365 3.043 13.115 9.128 17.225 6.085 4.118 14.234 6.173 24.43 6.173 9.172 0 16.845-1.587 23.018-4.762 9.253-4.798 14.226-12.895 14.914-24.298h38.056c-0.688 20.144-8.082 35.511-22.177 46.095-14.102 10.584-31.137 15.879-51.112 15.879-23.91 0-42.043-5.617-54.382-16.845-12.347-11.227-18.52-25.329-18.52-42.299 0-18.6 6.393-32.271 19.163-41.011 7.541-5.23 21.168-10.072 40.88-14.533l20.063-4.498c11.739-2.575 20.356-5.53 25.841-8.872 5.486-3.43 8.229-8.272 8.229-14.526 0-10.715-5.53-18.044-16.589-21.987-5.829-2.055-13.414-3.087-22.755-3.087-15.601 0-26.617 3.899-33.046 11.703-3.511 4.286-5.866 10.752-7.066 19.412zM424.536 425.326h39.344v189.513h-39.344zM487.409 425.326h147.471v33.426h-99.387l99.131 124.328v31.759h-144.772v-33.558h95.4l-97.843-122.529zM801.77 614.839h-138.986v-189.513h143.616v34.070h-104.916v48.728h92.058v32.914h-92.058v40.243h100.286zM458.291 219.224c0.6-14.826 3.599-26.829 8.997-36.001 10.284-17.225 28.628-25.841 55.033-25.841 21.424 0 37.603 5.976 48.53 17.935 10.935 11.959 16.399 25.819 16.399 41.596 0 14.994-4.674 26.829-14.014 35.482-6.261 5.742-11.059 8.616-14.402 8.616 4.454 1.712 8.741 4.93 12.859 9.64 6.51 7.548 9.772 16.801 9.772 27.772 0 15.514-5.464 27.882-16.399 37.098-10.928 9.209-25.307 13.817-43.132 13.817-9.604 0-17.701-1.156-24.298-3.467-6.605-2.319-12.303-5.661-17.101-10.035-6.429-6.166-11.147-12.895-14.146-20.18-2.831-8.316-4.411-17.101-4.754-26.361h34.202c-0.176 9.172 1.777 16.501 5.844 21.987 4.074 5.486 10.437 8.229 19.098 8.229 7.541 0 13.392-2.231 17.547-6.685s6.239-10.24 6.239-17.357c0-10.971-4.074-18.256-12.215-21.855-4.718-2.143-13.034-3.306-24.942-3.474v-26.229c12.171 0 21.080-1.156 26.741-3.467 9.94-4.118 14.914-12.303 14.914-24.561 0-9.26-2.677-16.347-8.038-21.277-5.354-4.93-11.637-7.395-18.834-7.395-11.739 0-19.844 4.498-24.298 13.502-2.399 4.886-3.599 11.059-3.599 18.512z" />
<glyph unicode="&#xe953;" glyph-name="size-4" d="M621.524 784.457l108.69 62.757 110.336-63.707v-127.415l0.11-0.183 110.343-63.707v-127.415l-108.544-62.669 1.36-0.79v-127.408l-110.336-63.707-0.11-0.19v-127.408l-110.343-63.707-108.485 62.632-108.485-62.632-110.336 63.707v127.247l-110.204 63.62v126.354l-1.887-1.090-110.343 63.707v127.415l109.685 63.327-1.156 0.666v127.415l110.343 63.707 110.329-63.7v2.224l110.343 63.707zM230.444 483.825c0-19.712 7.073-35.211 21.219-46.482 14.139-11.271 33.558-16.903 58.244-16.903 24.166 0 42.876 5.72 56.115 17.167 13.246 11.44 19.866 25.819 19.866 43.132 0 16.889-5.654 29.784-16.969 38.7-7.285 5.742-18.088 10.328-32.402 13.758l-32.658 7.841c-12.595 2.999-20.824 5.617-24.686 7.841-5.998 3.343-8.997 8.404-8.997 15.177 0 7.365 3.043 13.115 9.128 17.225 6.085 4.118 14.226 6.173 24.43 6.173 9.172 0 16.845-1.587 23.011-4.762 9.26-4.798 14.234-12.895 14.914-24.298h38.064c-0.688 20.144-8.082 35.511-22.184 46.095-14.095 10.584-31.13 15.879-51.105 15.879-23.91 0-42.043-5.617-54.389-16.845-12.339-11.227-18.512-25.329-18.512-42.299 0-18.6 6.385-32.271 19.156-41.011 7.548-5.23 21.175-10.072 40.887-14.533l20.056-4.498c11.747-2.575 20.363-5.53 25.849-8.872 5.486-3.43 8.229-8.272 8.229-14.526 0-10.715-5.53-18.044-16.589-21.987-5.829-2.055-13.414-3.087-22.755-3.087-15.601 0-26.617 3.899-33.046 11.703-3.511 4.286-5.873 10.752-7.073 19.412zM412.116 425.326h39.344v189.513h-39.344zM474.99 425.326h147.471v33.426h-99.387l99.131 124.328v31.759h-144.772v-33.558h95.4l-97.843-122.529zM789.343 614.839h-138.979v-189.513h143.609v34.070h-104.909v48.728h92.050v32.914h-92.050v40.243h100.279zM576.622 230.795h-21.080v116.487h-41.143l-68.528-113.145v-32.015h73.794v-40.112h35.877v40.112h21.080zM472.993 230.795l46.672 80.486v-80.486z" />
<glyph unicode="&#xe954;" glyph-name="size-half" d="M906.832 180.48l-394.693-227.869-394.686 227.869v455.753l394.686 227.869 394.693-227.869zM512.139 830.325l-365.429-210.988v-421.961l365.429-210.988 365.436 210.988v421.961zM268.383 496.772c1.2-8.66 3.562-15.133 7.073-19.419 6.429-7.797 17.445-11.696 33.046-11.696 9.34 0 16.925 1.024 22.755 3.079 11.059 3.95 16.589 11.271 16.589 21.987 0 6.261-2.743 11.103-8.229 14.533-5.486 3.343-14.102 6.298-25.849 8.872l-20.056 4.498c-19.712 4.454-33.339 9.296-40.887 14.526-12.771 8.741-19.156 22.418-19.156 41.019 0 16.969 6.173 31.071 18.52 42.299 12.339 11.227 30.471 16.837 54.382 16.837 19.975 0 37.010-5.288 51.105-15.872 14.102-10.591 21.497-25.951 22.184-46.095h-38.056c-0.688 11.396-5.661 19.5-14.921 24.298-6.166 3.174-13.839 4.754-23.011 4.754-10.203 0-18.344-2.055-24.43-6.166-6.085-4.118-9.128-9.86-9.128-17.232 0-6.773 2.999-11.827 9.004-15.17 3.855-2.231 12.083-4.842 24.686-7.841l32.651-7.841c14.314-3.43 25.117-8.016 32.402-13.758 11.315-8.916 16.969-21.819 16.969-38.7 0-17.32-6.619-31.693-19.858-43.14-13.246-11.44-31.956-17.167-56.123-17.167-24.686 0-44.105 5.639-58.244 16.911-14.146 11.271-21.219 26.763-21.219 46.482h37.8zM412.255 627.785h39.344v-189.513h-39.344v189.513zM475.129 471.698l97.843 122.529h-95.4v33.558h144.772v-31.759l-99.131-124.328h99.387v-33.434h-147.471v33.434zM789.489 594.227h-100.286v-40.243h92.058v-32.914h-92.058v-48.728h104.909v-34.077h-143.609v189.52h138.986v-33.558zM347.524 303.528v24.942c11.571 0.512 19.668 1.287 24.298 2.311 7.373 1.631 13.371 4.886 18 9.772 3.174 3.343 5.573 7.797 7.197 13.371 0.944 3.343 1.419 5.829 1.419 7.461h30.471v-186.434h-37.544v128.578h-43.842zM534.718 370.256h30.471l-73.669-195.306h-30.215l73.413 195.306zM557.093 174.95c0.344 13.378 3.218 25.593 8.616 36.645 5.23 12.427 17.569 25.585 37.025 39.475 16.889 12.083 27.816 20.743 32.79 25.966 7.629 8.148 11.44 17.064 11.44 26.748 0 7.885-2.187 14.438-6.554 19.668-4.374 5.23-10.628 7.841-18.776 7.841-11.14 0-18.725-4.155-22.755-12.471-2.311-4.798-3.686-12.427-4.118-22.886h-35.613c0.6 15.857 3.474 28.672 8.616 38.444 9.772 18.6 27.129 27.904 52.070 27.904 19.719 0 35.401-5.464 47.060-16.391 11.659-10.935 17.481-25.395 17.481-43.396 0-13.802-4.111-26.061-12.339-36.769-5.398-7.117-14.27-15.045-26.617-23.786l-14.658-10.416c-9.172-6.517-15.448-11.227-18.834-14.146-3.387-2.911-6.232-6.298-8.55-10.152h81.386v-32.278h-127.671z" />
<glyph unicode="&#xe955;" glyph-name="structure" d="M512.032 837.572l389.603-389.603-389.603-389.603-389.603 389.603zM512.032 154.863l293.106 293.106-293.106 293.106-293.106-293.106zM512.032 652.833l-34.187-34.187v-341.354l34.187-34.058 34.058 34.058v341.354zM716.767 447.968l-34.058 34.187h-341.354l-34.187-34.187 34.187-34.058h341.354z" />
<glyph unicode="&#xe956;" glyph-name="system" d="M580.277 789.323l-61.15-61.15-51.345 51.216-48.12-48.249 51.087-51.216-71.083-71.212-51.216 51.345-48.507-48.507 51.345-51.216-71.212-71.212-51.087 51.216-48.378-48.12 51.216-51.216-61.15-61.279v-34.058l238.922-239.051h34.187l61.15 61.279 51.087-51.087 48.378 48.12-51.216 51.216 71.341 71.212 51.087-51.087 48.249 47.991-51.216 51.345 71.212 71.212 51.216-51.216 48.249 48.378-51.216 51.087 61.279 61.15v34.187l-239.051 238.922zM580.277 618.646l102.432-102.432-238.922-238.922-102.432 102.432z" />
<glyph unicode="&#xe957;" glyph-name="threat" d="M512.032 650.769l77.018-77.018 113.269 113.269-44.121 44.121 48.249 48.249 136.49-136.49-48.249-48.249-44.121 44.121-113.269-113.269 77.534-77.534-77.405-77.405 113.14-113.14 44.121 44.121 48.249-48.249-136.49-136.619-48.249 48.249 44.121 44.25-113.14 113.14-77.147-77.147-77.276 77.276-113.398-113.398 44.121-44.121-48.249-48.249-136.49 136.49 48.249 48.249 44.121-44.121 113.398 113.398-77.276 77.276 77.276 77.276-113.398 113.398-44.121-44.121-48.249 48.249 136.49 136.619 48.249-48.249-44.121-44.25 113.398-113.398zM512.032 309.414l138.554 138.554-138.554 138.554-138.554-138.554z" />
<glyph unicode="&#xe958;" glyph-name="weaponmod" d="M816.748 518.665l-78.050-78.179-33.8 33.8-34.574-13.933-24.124-24.124 43.992-44.121-122.428-122.428-43.992 44.121-24.124-24.124-14.578-34.316 34.445-34.058-78.179-78.179 48.378-48.249 375.412 375.412zM328.97 153.186l-170.677 170.677 102.432 102.303 68.245 34.187 170.677 170.677 34.187 68.245 102.303 102.432 170.677-170.677-102.303-102.432-68.374-34.058-170.677-170.677-34.058-68.245zM286.622 566.283l107.095 107.095 47.618-47.618-107.095-107.095-47.618 47.618z" />
<glyph unicode="&#xe959;" glyph-name="trait" d="M512.032 789.323l-118.3-68.245 34.187-59.086 84.113 48.507 84.113-48.507 34.058 59.086zM334.646 686.891l-118.3-68.245v-136.49h68.374v97.143l84.113 48.636zM689.288 686.891l-34.058-58.957 84.113-48.636v-97.143h68.245v136.49zM216.346 413.91v-136.619l118.3-68.245 34.187 59.086-84.113 48.636v97.143zM739.343 413.91v-97.143l-84.113-48.636 34.058-59.086 118.3 68.245v136.619zM427.919 234.074l-34.187-59.086 118.3-68.374 118.171 68.374-34.058 59.086-84.113-48.636zM512.032 584.588l118.171-68.374v-136.49l-118.171-68.245-118.3 68.245v136.49z" />
<glyph unicode="&#xe95a;" glyph-name="weapon" d="M853.386 755.265l-217.249-72.502v-96.498l-397.215-397.215v-48.249h48.249l397.215 397.215h96.498zM170.677 755.265l72.373-217.249h96.498l80.114-79.985 48.249 48.249-79.985 79.985v96.498zM604.401 369.79l-48.249-48.249 180.611-180.74h48.249v48.249z" />
<glyph unicode="&#xe95b;" glyph-name="blast" d="M887.573 447.968c0-101.271-43.992-199.446-110.044-265.498s-164.227-110.044-265.498-110.044c-101.271 0-199.446 43.992-265.498 110.044s-110.044 164.227-110.044 265.498c0 101.271 43.992 199.446 110.044 265.498s164.227 110.044 265.498 110.044c101.271 0 199.446-43.992 265.498-110.044s110.044-164.227 110.044-265.498zM729.281 665.217c-57.537 57.408-129.911 89.918-217.249 89.918s-159.712-32.51-217.249-89.918c-57.408-57.537-89.918-129.911-89.918-217.249s32.51-159.712 89.918-217.249c57.537-57.408 129.911-89.918 217.249-89.918s159.712 32.51 217.249 89.918c57.408 57.537 89.918 129.911 89.918 217.249s-32.51 159.712-89.918 217.249zM476.942 504.99v136.619h68.374v-136.619zM476.942 254.457v136.619h68.374v-136.619zM318.456 481.833h136.619v-68.374h-136.619zM568.86 481.833h136.619v-68.374h-136.619z" />
<glyph unicode="&#xe95c;" glyph-name="rank-1" d="M510 18l-326.6 168v692h657.2v-692zM215.4 205.48l294.6-151.48 298.6 151.52v640.48h-593.2zM508.52 271.68l-189.32 97.38v-100l189.080-97.24 196.54 99.78v99.8z" />
<glyph unicode="&#xe95d;" glyph-name="rank-2" d="M510 18l-326.6 168v692h657.2v-692zM215.4 205.48l294.6-151.48 298.6 151.52v640.48h-593.2v-640.52zM508.26 337l196.54 99.78v99.8l-196.28-99.64-189.32 97.38v-100zM508.52 271.68l-189.32 97.38v-100l189.080-97.24 196.54 99.78v99.8z" />
<glyph unicode="&#xe95e;" glyph-name="rank-3" d="M510 18l-326.6 168v692h657.2v-692zM215.4 205.48l294.6-151.48 298.6 151.52v640.48h-593.2v-640.52zM590.62 542.16l-29 92 77.6 57.46-96.54 0.86-30.68 91.64-30.66-91.56-96.54-0.86 77.6-57.46-29-92 78.62 56zM508.26 337l196.54 99.78v99.8l-196.28-99.64-189.32 97.38v-100zM508.52 271.68l-189.32 97.38v-100l189.080-97.24 196.54 99.78v99.8z" />
<glyph unicode="&#xe95f;" glyph-name="nested-hexagons" d="M512 916.96l-406.132-234.48v-468.96l406.132-234.48 406.132 234.48v468.96l-406.132 234.48zM512 875.394l370.132-213.7v-427.39l-370.132-213.7-370.132 213.702v427.39l370.132 213.7zM512 813.534l-316.56-182.764v-365.54l316.56-182.766 316.56 182.766v365.54l-316.56 182.766zM512 771.968l280.56-161.984v-323.968l-280.56-161.984-280.56 161.984v323.968l280.56 161.984zM512 710.108l-226.996-131.054v-262.108l226.996-131.056 226.996 131.056v262.108l-226.996 131.056zM512 668.542l190.996-110.27v-220.54l-190.996-110.272-190.996 110.27v220.54l190.996 110.27zM512 606.686l-137.426-79.34v-158.688l137.426-79.342 137.426 79.34v158.688l-137.426 79.34zM512 565.12l101.426-58.56v-117.12l-101.426-58.56-101.426 58.56v117.12l101.426 58.56zM512 503.26l-47.856-27.632v-55.256l47.856-27.632 47.856 27.632v55.256l-47.856 27.632z" />
<glyph unicode="&#xe960;" glyph-name="orbit" d="M498.568 907.936c-122.127-3.67-231.738-54.391-311.899-134.559l-0.001-0.001c-83.207-83.27-134.666-198.272-134.666-325.293 0-254.169 206.045-460.214 460.214-460.214 72.636 0 141.342 16.827 202.431 46.797l-2.711-1.201c11.058-12.345 27.047-20.077 44.843-20.077 33.202 0 60.118 26.916 60.118 60.118 0 9.134-2.037 17.793-5.682 25.546l0.155-0.368c8.882 7.64 17.52 15.646 25.904 24.016 83.224 82.79 134.728 197.396 134.728 324.030 0 0.472-0.001 0.943-0.002 1.415v-0.073c0 0.009 0 0.020 0 0.031 0 254.066-205.962 460.028-460.028 460.028-4.713 0-9.41-0.071-14.090-0.212l0.686 0.016zM514.572 878.156c235.782-1.999 426.148-193.6 426.148-429.664 0-118.503-47.973-225.802-125.557-303.535l0.007 0.007c-7.528-7.458-15.344-14.698-23.399-21.67l-0.595-0.504c-9.552 6.684-21.413 10.68-34.207 10.68-33.202 0-60.118-26.916-60.118-60.118 0-4.15 0.42-8.201 1.221-12.114l-0.066 0.387c-54.636-27.010-118.957-42.811-186.969-42.811-237.305 0-429.678 192.373-429.678 429.678s192.373 429.678 429.678 429.678c1.243 0 2.485-0.005 3.725-0.016l-0.19 0.001zM498.668 752.732c-81.975-3.692-154.998-39.205-207.554-94.389l-0.118-0.125v-13.416h49.706l15.7-32.608 40.548 9.152 51.012 3.914 53.572-26.16 27.488-27.578-17.052-23.48-53.572-10.458 27.39-38.524 9.318-14.534-24.944-36.454-37.924 10.668-32.608-13.324-11.76-24.248h-51.012l-20.732 25.948v47.078l-38.126 4.89-19.612-40.32-6.546-51.968 17-41.926 32.61-36.614 14.586-45.77-13.28-15.7-45.93 14.14c55.374-83.294 148.826-137.445 254.925-137.445 168.52 0 305.132 136.612 305.132 305.132 0 30.521-4.481 59.996-12.821 87.802l0.556-2.16-23.156-67.734-111.104-101.578-22.314 29.558 48.68 89.98-1.514 54.432-47.166-31.302-14.372 54.596 61.56 127.458h2.844c-50.913 39.522-115.719 63.359-186.093 63.359-4.684 0-9.343-0.106-13.975-0.314l0.658 0.024zM562.84 410.55l37.268-8.832 11.902-58.23-59.44-55.716-9.154-99.762-38.852-23.034-26.226 60.302-58.628 33.474-26.532 74.162 25.25 55.672 144.412 21.964z" />
<glyph unicode="&#xe961;" glyph-name="orbital" d="M512.5 918.688c-65.56 0-128.060-13.58-184.876-38-16.364 21.236-41.988 34.936-70.874 34.936-49.432 0-89.56-40.066-89.56-89.5 0-16.712 4.648-32.36 12.62-45.748-85.276-85.31-138.186-202.98-138.186-332.564 0-259.234 211.646-469.44 470.876-469.44 259.23 0.004 469.44 210.206 469.44 469.44 0 259.236-210.21 470.876-469.44 470.876zM512.5 880.062c239.030 0 432.188-193.214 432.188-432.248s-193.16-432.188-432.188-432.188c-239.030 0-433.626 193.154-433.626 432.188 0 119.136 48.352 226.876 126.44 305 14.546-10.226 32.3-16.188 51.436-16.188 49.432 0 89.5 40.068 89.5 89.5 0 6.906-0.77 13.608-2.25 20.064 51.82 21.81 108.792 33.87 168.5 33.87zM512.25 776.442c-182.6 0-331.75-149.15-331.75-331.752 0-182.6 149.152-330.812 331.75-330.812 70.24 0 135.416 21.93 189 59.312 14.26-8.46 30.9-13.312 48.688-13.312 52.792 0 95.62 42.768 95.62 95.56 0 25.526-10.010 48.732-26.31 65.876 15.354 38.134 23.812 79.768 23.812 123.376 0 182.6-148.212 331.75-330.81 331.75zM512.25 738.19c162.4 0 293.56-131.1 293.56-293.5 0-35.666-6.344-69.848-17.934-101.44-11.62 5.026-24.474 7.814-37.94 7.814-52.792 0-95.56-42.828-95.56-95.62 0-21.18 6.908-40.724 18.56-56.566-46.13-30.168-101.32-47.686-160.686-47.686-162.4 0-294.44 131.1-294.44 293.5s132.040 293.5 294.44 293.5zM510.124 698.94c-14.924-63.98-43.534-124.224-85.812-166.5-42.28-42.28-97.46-65.826-161.44-80.752 63.98-14.924 124.224-43.472 166.5-85.75 42.28-42.28 65.828-97.528 80.752-161.5 14.926 63.972 38.408 119.22 80.688 161.5 42.28 42.276 102.524 70.824 166.5 85.748-64.472 14.856-118.91 38.22-161.44 80.75-42.524 42.526-70.892 102.026-85.746 166.5zM510.312 525.812c40.996 0 74.25-33.254 74.25-74.25 0-40.992-33.252-74.248-74.248-74.248-40.994 0-74.25 33.256-74.25 74.25 0 41 33.26 74.252 74.252 74.252z" />
<glyph unicode="&#xe962;" glyph-name="large-beam" d="M35.214 928.964v-145.8l416.46-380.164-221.854 47.148 289.726-228.524c3.14 30.336 28.772 54 59.94 54 33.284 0 60.272-26.98 60.272-60.268 0-33.28-26.98-60.27-60.272-60.27-21.672 0-40.668 11.444-51.288 28.62l-210.16 5.856 313.334-143.614-249.5-45.7 86.244-30.492h242.072c1.924 11.204 4.332 22.248 7.194 33.11-26.78 8.432-46.21 33.46-46.21 63.030 0 36.488 29.58 66.074 66.080 66.074 12.532 0 24.254-3.492 34.24-9.554 11.86 17.71 25 34.32 39.22 49.62-9.664 8.48-16.808 19.76-20.14 32.588-7.92-6.714-18.164-10.772-29.36-10.772-25.086 0-45.426 20.334-45.426 45.426 0 25.086 20.334 45.426 45.424 45.426 17.526 0 32.73-9.93 40.306-24.47 11.9 15.85 30.852 26.106 52.2 26.106 25.828 0 48.15-15.008 58.726-36.78 24.256 12.336 49.58 21.45 75.37 26.85v134.586l-15.27 130.926-76.104-210.2-77.976 329.316-57.346-223.38-186.080 321.156 20.5-239.636-396.786 409.786h-163.538zM571.394 446.070c17.366 0 32.066-11.406 37.024-27.136 10.692 9.184 24.584 14.746 39.788 14.746 33.75 0 61.12-27.36 61.12-61.12 0-33.75-27.36-61.12-61.12-61.12-33.488 0-60.674 26.94-61.1 60.334-4.806-2.132-10.116-3.34-15.714-3.34-21.436 0-38.816 17.38-38.816 38.82 0 21.436 17.372 38.816 38.814 38.816zM795.894 395.902c21.44 0 38.82-17.376 38.82-38.82 0-21.434-17.38-38.814-38.82-38.814-21.436 0-38.816 17.374-38.816 38.816 0 21.44 17.372 38.82 38.814 38.82z" />
<glyph unicode="&#xe963;" glyph-name="ammo" d="M183.024 606.228c-12.488-46.627 9.147-152.375 60.346-241.056l4.58-76.187 51.201-88.681 177.361 102.4-51.199 88.681-63.694 42.054c-51.201 88.681-131.96 160.296-178.588 172.789zM360.386 708.628c-12.488-46.627 9.147-152.375 60.346-241.056l63.694-42.054 51.199-88.681 118.242 68.267-51.201 88.681-63.694 42.054c-51.199 88.681-131.96 160.296-178.587 172.789zM537.748 811.028c-12.488-46.627 9.147-152.375 60.346-241.056l63.694-42.054 51.201-88.681 118.241 68.267-51.199 88.681-63.694 42.054c-51.201 88.681-131.96 160.296-178.588 172.789zM333.277 141.183l34.133-59.12 177.363 102.4-34.134 59.12zM569.76 277.716l34.133-59.12 118.241 68.267-34.133 59.12zM747.121 380.116l34.133-59.12 118.242 68.267-34.134 59.12z" />
<glyph unicode="&#xe964;" glyph-name="burning" d="M61.872 913.336c-1.94-200.824 20.74-384.26 201.514-462.128 219.62-94.606 93.766-237.7-116.492-166.004 152.22-130.444 291.33-283.304 401.856-319.97 13.56-5.99 28.52-9.348 44.24-9.348 22.808 0 44.046 7.016 61.67 18.99 63.1-17.088 118.13-22.69 164.8-18.46 39.88 0.39 76.824 13.352 107.048 35.112 99.972 66.98 110.92 219.66 23.43 402.68 3.146 17.13 2.154 33.994-2.308 50.644-3.946 19.012-12.454 36.39-24.304 50.952-57.94 85.53-194.716 166.36-319.16 249.012 155.58-198.41 134.428-286.2 21.27-188.468 2.18 15.248-2.45 30.348-12.206 46.356-3.6 6.8-8.064 13.080-13.25 18.686-35.976 45.14-104.44 99.7-174.040 184.156 76.112-372.3-195.66-166.64-364.072 107.79zM535.58 612.328c28.064 0 50.416-22.352 50.416-50.42 0-28.064-22.35-50.416-50.42-50.416-28.064 0-50.416 22.352-50.416 50.42 0 28.064 22.35 50.416 50.42 50.416zM830.73 502.66c45.512 0 82.008-36.496 82.008-82.008s-36.496-82.008-82.010-82.008c-10.29 0-20.112 1.884-29.164 5.3-1.492 38.784-21.28 73.024-50.952 94.32 7.994 36.956 40.656 64.396 80.116 64.396zM679.83 423.714c46.88 0 84.48-37.604 84.48-84.484s-37.6-84.484-84.48-84.484-84.486 37.604-84.486 84.484c0 46.88 37.6 84.484 84.484 84.484zM817.602 292.786c82.792 0 149.51-66.72 149.51-149.508 0-82.794-66.714-149.51-149.508-149.51-46.794 0-88.44 21.324-115.82 54.808 0.916 5.7 1.408 11.544 1.408 17.5 0 31.628-13.504 60.226-35.012 80.366 0.536 25.926 7.608 50.184 19.656 71.22 46.326 3.036 85.744 32.184 103.606 72.806 8.494 1.492 17.226 2.314 26.16 2.314zM526.542 271.606c25.252 0 45.324-20.076 45.324-45.328 0-25.256-20.070-45.326-45.324-45.326s-45.326 20.070-45.326 45.324c0 25.25 20.070 45.326 45.326 45.326zM592.994 138.906c40.44 0 72.828-32.388 72.828-72.828 0-40.444-32.384-72.826-72.828-72.826-40.44 0-72.824 32.384-72.824 72.824s32.38 72.826 72.824 72.826z" />
<glyph unicode="&#xe965;" glyph-name="balance" d="M642.75 929.374l-117.31-117.186 51.56-13.812-31.126-116.126c-10.88 1.512-21.74 2.28-32.5 2.25-1.774-0.006-3.54-0.080-5.312-0.126l43.94-91.5 84.5 56.814c-12.526 7.74-25.888 14.41-40.060 19.75l30.934 115.436 57.314-15.314-41.94 159.814zM266.5 879.874l-0.188-165.812 46.25 26.69 60.128-104.126c-10.068-7.648-19.5-16.144-28.25-25.374l100.12-32.876 18.128 100.314c-15.594-3.554-30.744-8.672-45.188-15.25l-59.75 103.436 51.376 29.624-142.626 83.376zM777.060 698.688l26.69-46.188-104.126-60.126c-7.6 10.004-16.020 19.414-25.186 28.126l-32.252-96.312 98.56-17.876c-3.488 14.188-8.296 27.98-14.31 41.188l103.434 59.75 29.626-51.312 83.376 142.62-165.814 0.128zM195.5 621.688l-159.812-41.94 117.124-117.31 13.812 51.562 116.126-31.126c-1.87-13.534-2.5-26.996-2-40.312l95.060 45.628-59.686 86.5c-8.044-12.864-14.932-26.62-20.436-41.25l-115.56 30.936 15.372 57.312zM747.25 459.128l-90.25-44.754 56.626-84.25c6.3 10.4 11.874 21.346 16.56 32.874l115.876-31.060-13.81-51.566 160.126 43.064-117.44 116.184-15.374-57.312-115.184 30.876c2.54 15.412 3.414 30.774 2.874 45.94zM286.69 398.562c3-12.88 7.032-25.44 12.12-37.56l-104.186-60.188-26.684 46.186-82.752-143.626 165.188 0.876-29.626 51.312 103.56 59.816c9.31-13.040 19.96-25.114 31.814-36.064l34.564 99.060-104 20.19zM588 326.5l-18.44-102.060c11.82 2.908 23.346 6.694 34.5 11.372l60.19-104.188-46.25-26.684 143.688-82.816-0.876 165.25-51.374-29.686-59.752 103.5c12.874 9.176 24.86 19.694 35.688 31.374l-97.374 33.938zM480.5 312l-88.25-60.060c10.64-6.524 21.91-12.254 33.75-17.066l-31.060-115.874-51.564 13.812 43.060-160.124 116.19 117.44-57.25 15.372 30.874 115.25c16.59-2.734 33.152-3.632 49.44-2.812l-45.19 94.062z" />
<glyph unicode="&#xe966;" glyph-name="reticule" d="M530.44 920.624v-115.5c182.066-9.12 328.286-155.372 337.434-337.436h115.5c-9.27 246.24-206.69 443.7-452.936 452.94zM493.060 920.564c-245.72-9.864-443.626-207.052-452.934-452.878h116.754c9.12 181.648 154.692 327.654 336.18 337.374v115.5zM512.44 706.124c-64.46 0-123.536-23.58-168.816-62.624l44.94-44.94c24.612 20.492 54.408 34.974 87.124 41.252l37.56-141.060 37.5 140.748c31.774-6.364 60.74-20.464 84.814-40.312l44.69 44.688c-44.93 38.82-103.564 62.25-167.812 62.25zM706.688 617.438l-44.688-44.69c19.992-24.272 34.144-53.54 40.44-85.626l-140.19-37.374 140.25-37.312c-6.3-32.494-20.62-62.224-40.876-86.88l44.688-44.684c39.026 45.274 62.624 104.308 62.626 168.75 0 64.248-23.432 122.88-62.252 167.812zM317.188 617.124c-38.956-44.892-62.56-103.394-62.56-167.5 0-64.3 23.77-123.2 62.934-168.44l45.064 45.064c-19.866 24.404-33.92 53.732-40.186 85.75l141.872 37.75-141.812 37.812c6.272 31.62 20.196 60.47 39.812 84.5l-45.124 45.064zM40.188 430.31c9.9-245.33 207.548-442.974 452.872-452.87v116.68c-181.088 9.704-326.42 155.094-336.12 336.188h-116.754zM867.812 430.31c-9.724-181.51-155.7-327.15-337.372-336.25v-116.684c245.848 9.276 443.014 207.192 452.872 452.936h-115.5zM513.252 400.81l-37.94-142.56c-32.416 6.376-61.99 20.91-86.44 41.374l-44.872-44.874c45.236-39.164 104.144-62.94 168.44-62.94 64.1 0 122.608 23.606 167.5 62.566l-44.69 44.686c-23.91-19.828-52.592-33.96-84.060-40.434l-37.94 142.186z" />
<glyph unicode="&#xe967;" glyph-name="spikes" d="M512 928c-11.436-102.932-48.408-187.994-65.626-249.374-17.792-5.050-34.772-11.836-50.624-20.626-55.606 31.29-142.26 64.68-223.126 129.376 64.696-80.868 98.086-167.52 129.376-223.126-8.79-15.852-15.576-32.832-20.626-50.624-61.38-17.22-146.44-54.19-249.374-65.626 102.932-11.436 187.994-48.408 249.374-65.624 5.050-17.794 11.836-34.774 20.626-50.626-31.29-55.604-64.68-142.256-129.376-223.124 80.868 64.694 167.52 98.084 223.126 129.374 15.852-8.79 32.832-15.576 50.624-20.624 17.22-61.38 54.19-146.44 65.626-249.376 11.436 102.934 48.408 187.996 65.624 249.376 17.794 5.048 34.774 11.834 50.626 20.624 55.604-31.29 142.256-64.68 223.124-129.374-64.694 80.868-98.084 167.52-129.374 223.124 8.79 15.852 15.576 32.832 20.624 50.626 61.38 17.216 146.44 54.188 249.376 65.624-102.934 11.436-187.996 48.408-249.376 65.626-5.048 17.792-11.834 34.772-20.624 50.624 31.29 55.606 64.68 142.26 129.374 223.126-80.868-64.696-167.52-98.086-223.124-129.376-15.852 8.79-32.832 15.576-50.626 20.626-17.216 61.38-54.188 146.44-65.624 249.374zM512 568c33.14 0 63.596-12.972 85.314-34.686 21.716-21.714 34.686-52.174 34.686-85.314s-12.972-63.596-34.686-85.314c-21.72-21.716-52.174-34.686-85.314-34.686s-63.6 12.972-85.314 34.686c-21.72 21.72-34.686 52.174-34.686 85.314s12.972 63.6 34.686 85.314c21.714 21.72 52.174 34.686 85.314 34.686z" />
<glyph unicode="&#xe968;" glyph-name="eclipse" d="M318.364 925.77l29.764-258.966-92.268 50.606 74.92-145.828c37.284 54.008 99.596 89.404 170.188 89.404 114.14 0 206.668-92.524 206.668-206.664 0-61.544-26.908-116.796-69.594-154.656l135.836-58.808-52.516 120.54 275.66 31.568-253.008 89.3 163.706 107.16h-187.52l210.008 333.104-260.608-214.050-5.956 145.852-139.9-169.664-38.7 169.668-44.646-136.92-122.038 208.352zM49.88 676.4l97.24-108.708 143.45-51.594-103.176 116.474-137.514 43.828zM294.34 450.96l-99.052-55.026 87.38-9.368-152.914-190.36 181 96.744-165.404-321.44 249.66 255.9 12.484-143.55 53.726 167.624c-94.060 18.326-165.3 100.432-166.88 199.476zM606.21 276.434c-24.21-14.356-51.6-23.904-80.866-27.344l150.16-272.328-69.294 299.674zM499.9 212.1h-0.006l-22.914-119.744 38.474-121.48 25.066 127.624-40.62 113.6zM762.86 185.2l69.026-96.78 104.906-24.982-65.192 90.196-108.74 31.566z" />
<glyph unicode="&#xe969;" glyph-name="sword-array" d="M404.188 903c-18.25 0-32.688-14.38-32.688-32.626 0-18.244 14.436-32.624 32.688-32.624 7.854 0 14.976 2.674 20.56 7.16l117.68-42.788-21.84-60.050 35.126-12.774 9.66 26.552 319.774-116.27 103.816 19.896-65.468 81.8-320.984 116.704 9.652 26.548-35.124 12.772-21.84-60.054-120.106 43.672c-4.308 12.94-16.36 22.080-30.906 22.080zM589.738 822.856l248.034-90.184 21.87-26.954-29.86-6.244-251.642 91.498 11.6 31.884zM326.81 761c-18.25 0-32.624-14.38-32.624-32.626 0-18.244 14.372-32.686 32.624-32.686 3.68 0 7.194 0.61 10.474 1.7l-0.606-0.864 105.6-73.892-36.64-52.35 30.626-21.428 16.2 23.148 278.78-195.066 105.43-7.644-42.066 95.952-279.84 195.8 16.2 23.148-30.62 21.43-36.64-52.36-104.374 73.030c0.040 0.692 0.1 1.38 0.1 2.086 0 18.252-14.372 32.624-32.624 32.624zM221.37 633c-18.246 0-32.684-14.38-32.684-32.626 0-18.244 14.434-32.624 32.688-32.624 1.85 0 3.646 0.184 5.406 0.468l73.98-88.1-48.944-41.092 24.036-28.63 21.64 18.166 219.628-261.55 99.274-33.476-16.87 104.346-218.8 260.57 21.636 18.16-24.032 28.628-48.94-41.088-75.92 90.4c0.33 1.89 0.532 3.828 0.532 5.82 0 18.256-14.372 32.628-32.626 32.628zM493.342 630.42l214.434-150.040 14.016-31.412-30.776 1.728-217.126 151.928 19.45 27.794zM85.624 545.12c-18.248 0-32.624-14.38-32.624-32.624 0-15.654 10.594-28.476 25.126-31.812l48.166-103.204-57.912-27.020 15.808-33.866 25.608 11.948 144.44-309.48 87.232-58.028 10.716 105.16-143.9 308.308 25.594 11.946-15.806 33.87-57.91-27.024-47.206 101.14c3.38 5.16 5.352 11.35 5.352 18.068 0 18.252-14.434 32.626-32.686 32.626zM352.104 474.41l168.208-200.324 5.22-32.76-30.414 10.010-169 201.26 25.98 21.814zM174.414 358.69l109.684-235-3.526-33.826-26.114 17.092-110.796 237.388 30.75 14.348z" />
<glyph unicode="&#xe96a;" glyph-name="marker" d="M512 896l-448-384h256l192 160 192-160h256l-448 384zM512 544l-104-78h-344v-36h344l104-78 104 78h344v36h-344l-104 78zM64 384l448-384 448 384h-256l-192-160-192 160h-256z" />
<glyph unicode="&#xe96b;" glyph-name="barrage" d="M38.020 922.92v-68.18l525.984-525.98c14.64-14.64 28.38-19.012 40.9-18.604 12.524 0.408 24.492 6.194 33.51 15.484 18.034 18.58 24.82 47.26-2.726 74.806l-522.48 522.474h-75.188zM851.74 523.648c-17.33 0.17-35.49-1.916-54.020-6.016l18.56-34.42c12.026 2.12 23.476 3.18 34.216 3.128 30.746-0.148 55.82-9.1 73.020-26.3 27.52-27.52 33.93-75.2 16.934-134.004-1.144-3.954-2.4-7.948-3.754-11.974l-44.25 104.784-18.090-134.528-67.020 92.45-3.128-117.88-75.75 36.62c23.064 29.44 39.46 60.432 48.052 90.154 11.78 40.756 8.986 81.65-17.5 108.136-16.554 16.556-38.74 23.856-62.996 24.126-14.556 0.164-29.86-2.206-45.14-6.624-16.846-4.868-34.094-12.27-51.244-21.936l27.654-27.652c11.696 5.952 23.14 10.56 33.964 13.69 12.388 3.58 23.614 5.248 33.52 5.226 16.51-0.040 29.356-4.788 37.82-13.25 13.54-13.54 17.572-38.306 8.024-71.34-9.55-33.036-32.636-71.804-66.954-106.12-34.32-34.32-73.090-57.406-106.124-66.956-33.036-9.548-57.796-5.52-71.336 8.024-13.54 13.54-17.572 38.3-8.024 71.336 3.23 11.18 8.048 23.020 14.288 35.12l-27.624 27.62c-9.98-17.516-17.588-35.154-22.56-52.364-11.784-40.76-8.994-81.65 17.494-108.14 26.486-26.484 67.38-29.274 108.136-17.494 29.448 8.514 60.144 24.69 89.344 47.42l38.684-80.016-125.436-3.324 92.454-67.026-134.52-18.090 100.51-42.446c-0.454-0.136-0.912-0.28-1.364-0.412-58.8-16.996-106.49-10.584-134.008 16.934-23.206 23.206-31.4 60.754-23.208 107.212l-34.396 18.544c-13.188-59.66-5.5-115.514 31.172-152.184 40.468-40.468 104.29-45.644 170.816-26.414 66.528 19.226 138.294 62.9 201.896 126.5 63.6 63.6 107.27 135.37 126.5 201.896 19.228 66.526 14.056 130.35-26.41 170.816-25.292 25.292-59.712 36.8-98.208 37.176z" />
</font>
</defs>
</svg>
